Люди в черном 3 / Men in Black 3 (Барри Зонненфельд / Barry Sonnenfeld) [2012 г., фантастика, боевик, комедия, приключения, BDRip-AVC, 1080p] Dub [Невафильм 2012] + Sub (Rus)

 

Создавать темы 13-Сен-2016 03:31

-Люди в черном 3 / Men in Black 3-- Производство: США
Год выпуска: 2012 г.
Жанр: фантастика, боевик, комедия, приключения
Продолжительность: 01:45:49Мировая премьера: 14 мая 2012
Российская премьера: 24 мая 2012, «WDSSPR»
Дата выхода DVD: 18 сентября 2012, «Columbia/Sony»
Дата выхода Blu-Ray: 18 сентября 2012, «Columbia/Sony»Перевод: Профессиональный (полное дублирование) [Невафильм 2012]
Режиссер: Барри Зонненфельд / Barry Sonnenfeld-В ролях: Уилл Смит, Джош Бролин, Томми Ли Джонс, Джемейн Клемент, Майкл Стулбарг, Эмма Томпсон, Элис Ив, Майк Колтер, Билл Хейдер, Майкл Чернус-Описание: Агент Джей узнает, что никакого защитного галактического щита, способного отразить иноземный удар, не существует. Агент Кей не построил его, потому что был убит в 1969 году. Агент Джей должен совершить путешествие во времени, чтобы спасти Землю и жизнь напарника.-
Качество видео: BDRip-AVC
Контейнер: MKV
Стандарт разрешения: 1080p
Видео кодек: MPEG4 AVC
Аудио кодек: AC3
Видео: AVC/H.264, 1920x1040 (1.85:1), ~4762 Kbps, 23,976 (24000/1001) fps
Аудио: AC3, 6 ch, 640 Kbps, 48,0 kHz
Cубтитры: русские
Формат субтитров: softsub (SRT)
Доп. информация о субтитрах: включаемые

Доп. информация

Саша Барон Коэн рассматривался на роль Бориса.
В фильме герои появляются на башне обслуживания, на стартовой площадке «Аполлона-11». Поскольку это событие широко освещалось на телевидении, думается, что миллионы людей могли видеть их.
Надпись «CRM-114» два раза появляется в фильме: на внешней стене тюрьмы на Луне (видна, когда Борис сбегает) и идентификационный номер бункера на пляже у мыса Канаверал. Эти цифры дань режиссеру Стэнли Кубрику, который использовал их в своем фильме «Доктор Стрейнджлав, или Как я научился не волноваться и полюбил атомную бомбу» (1963).
Система тросового спуска, показанная в фильме рядом со стартовой площадкой «Аполлона», действительно существует. Она была установлена для «Аполлона» и впоследствии расширена для программы «Космический челнок». Во время чрезвычайных ситуаций экипаж должен был спускаться в стальных кабинах по тросовым линиям вниз к взрывозащищённым бункерам. Для астронавтов освоение системы являлось частью тренировок, но она никогда не использовалась в реальной экстренной ситуации.
В самом начале фильма лунный модуль «Аполлона» демонстрируется с подъемным модулем. Этот модуль был запущен с Луны, чтобы вернуть астронавтов на орбитальный модуль для возвращения на Землю.
Один из солдат на пляже на мысе Канаверал имеет Железный крест среди прочих наград.
Леди Гага появляется на голографическом мониторе, в то время как агент Джей ищет агента Кея в штаб-квартире «людей в чёрном».
Режиссер Барри Зонненфельд снялся в роли одного из людей наблюдающих запуск «Аполлона-11» на диване с чашечкой кофе.
Майкл Бэй проявлял явный интерес к режиссуре фильма.
Сценарист Дэвид Кепп, который изначально работал над «Люди в черном 2», но покинул проект ради сценария к фильму «Человек-паук», был принят в команду сценаристов к «Люди в черном 3».
По слухам, Бетти Уайт претендовала на роль в фильме.
Это первый фильм Уилла Смита за 3,5 года, с момента выхода «Семь жизней» в декабре 2008-го. Столь длительного перерыва не было за всю его карьеру в кино, начавшуюся в 1993 году.

Награды

Жорж, 2013 год
Номинации (1):
Лучшая зарубежная комедия

Рецензия

Дождался. До этого никогда раньше не писал рецензии, но вот решил попробывать, так как нового фильма с Уилл Смитом ждал 3,5 года и вот дождался!Как только вышел фильм, я, как большой поклоник Уилла Смита, отправился в кинотеатр с большими надеждами на этот фильм. И мои ожидания оправдались: фильм вышел на высоте, он смотрелся буквально на одном дыхании. Мы снова увидили наших старых друзей: агента К и агента J, не думал, что это принесёт столько счастья, обидно только, что не было старого доброго мопса Френка.Фильм прекрасен не только своим сюжетом, но и в фильме присутствует отличный юмор. Так же хочется отметить, что все инопланетяне сделаны на «ура», пожалуй, по моему мнению, нет лучше фильмов, где было бы столько разнообразных причудливых инопланетян.В конце хочу добавить, что обычно, показывая трилогии, все последующие части после первой становятся не столь завораживающие, тоже самое я думал и здесь, так как, честно говоря, вторая часть не произвела на меня восторг, но, посмотрев третью и выйдя из кинозала, я был в полном восторге от счастья, так как я уже говорил: фильм получился отменный!10 из 10

Media Info

Общее
Уникальный идентификатор : 219028219690629858100934110901632742219 (0xA4C74CFA772E52E1AEA41F76A4F3B34B)
Полное имя : F:\Люди в черном\Ljudi v CHornom-3.2012.1080p.BDRip-AVC.[pirat.ca].mkv
Формат : Matroska
Версия формата : Version 2
Размер файла : 3,99 Гбайт
Продолжительность : 1 ч. 45 м.
Общий поток : 5403 Кбит/сек
Дата кодирования : UTC 2016-09-12 13:18:04
Программа кодирования : mkvmerge v5.3.0 ('I could have danced') built on Feb 9 2012 10:38:07
Библиотека кодирования : libebml v1.2.3 + libmatroska v1.3.0Видео
Идентификатор : 1
Формат : AVC
Формат/Информация : Advanced Video Codec
Профиль формата : [email protected]/* */
Параметр CABAC формата : Да
Параметр ReFrames формата : 4 кадра
Идентификатор кодека : V_MPEG4/ISO/AVC
Продолжительность : 1 ч. 45 м.
Битрейт : 4762 Кбит/сек
Ширина : 1920 пикселей
Высота : 1040 пикселей
Соотношение сторон : 1,85:1
Режим частоты кадров : Постоянный
Частота кадров : 23,976 (24000/1001) кадра/сек
Цветовое пространство : YUV
Субдискретизация насыщенности : 4:2:0
Битовая глубина : 8 бит
Тип развёртки : Прогрессивная
Бит/(Пиксели*Кадры) : 0.099
Размер потока : 3,44 Гбайт (86%)
Библиотека кодирования : x264 core 148 r2694 3b70645
Настройки программы : cabac=1 / ref=4 / deblock=1:-2:-2 / analyse=0x3:0x133 / me=umh / subme=11 / psy=1 / psy_rd=1.00:0.25 / mixed_ref=1 / me_range=32 / chroma_me=1 / trellis=2 / 8x8dct=1 / cqm=0 / deadzone=21,11 / fast_pskip=0 / chroma_qp_offset=-4 / threads=12 / lookahead_threads=1 / sliced_threads=0 / nr=0 / decimate=1 / interlaced=0 / bluray_compat=0 / constrained_intra=0 / bframes=4 / b_pyramid=2 / b_adapt=2 / b_bias=0 / direct=3 / weightb=1 / open_gop=0 / weightp=2 / keyint=240 / keyint_min=23 / scenecut=40 / intra_refresh=0 / rc_lookahead=60 / rc=2pass / mbtree=1 / bitrate=4762 / ratetol=1.0 / qcomp=0.60 / qpmin=0 / qpmax=69 / qpstep=4 / cplxblur=20.0 / qblur=0.5 / ip_ratio=1.40 / aq=1:1.00
Язык : English
Default : Да
Forced : Нет
Statistics Tags Issue : mkvmerge v7.3.0 ('Nouages') 32bit built on Oct 22 2014 18:44:01 2016-08-10 17:10:58 / mkvmerge v5.3.0 ('I could have danced') built on Feb 9 2012 10:38:07 2016-09-12 13:18:04
FromStats_BitRate : 4761276
FromStats_Duration : 01:45:50.386000000
FromStats_FrameCount : 152257
FromStats_StreamSize : 3779492795Аудио
Идентификатор : 2
Формат : AC-3
Формат/Информация : Audio Coding 3
Расширение режима : CM (complete main)
Параметр Endianness формата : Big
Идентификатор кодека : A_AC3
Продолжительность : 1 ч. 45 м.
Вид битрейта : Постоянный
Битрейт : 640 Кбит/сек
Каналы : 6 каналов
Расположение каналов : Front: L C R, Side: L R, LFE
Частота : 48,0 КГц
Частота кадров : 31,250 кадров/сек (1536 spf)
Метод сжатия : С потерями
Размер потока : 484 Мбайт (12%)
Заголовок : Rus
Язык : Russian
Default : Да
Forced : Нет
Statistics Tags Issue : mkvmerge v7.3.0 ('Nouages') 32bit built on Oct 22 2014 18:44:01 2016-08-10 17:10:58 / mkvmerge v5.3.0 ('I could have danced') built on Feb 9 2012 10:38:07 2016-09-12 13:18:04
FromStats_BitRate : 640000
FromStats_Duration : 01:45:50.400000000
FromStats_FrameCount : 198450
FromStats_StreamSize : 508032000Текст
Идентификатор : 3
Формат : UTF-8
Идентификатор кодека : S_TEXT/UTF8
Идентификатор кодека/Информация : UTF-8 Plain Text
Заголовок : Rus
Язык : Russian
Default : Нет
Forced : Нет
Statistics Tags Issue : mkvmerge v7.3.0 ('Nouages') 32bit built on Oct 22 2014 18:44:01 2016-08-10 17:10:58 / mkvmerge v5.3.0 ('I could have danced') built on Feb 9 2012 10:38:07 2016-09-12 13:18:04
FromStats_BitRate : 102
FromStats_Duration : 01:37:24.130000000
FromStats_FrameCount : 1462
FromStats_StreamSize : 75017

Скриншот c названием фильма

Скриншоты

Трейлер

Яндекс.Метрика
Рейтинг@Mail.ru