Дорожное чудовище / Monster Man (Майкл Дэвис / Michael Davis) [2003 г., ужасы, комедия, приключения, DVDRip-AVC] MVO

 

Создавать темы 12-Сен-2016 03:49

-Дорожное чудовище / Monster Man-- Производство: США
Год выпуска: 2003 г.
Жанр: ужасы, комедия, приключения
Продолжительность: 01:35:26Мировая премьера: 30 июля 2003
Перевод: Профессиональный (многоголосый, закадровый)
Режиссер: Майкл Дэвис / Michael Davis-В ролях: Эрик Джангманн,Джастин Урих,Айми Брукс,Майкл Бэйли Смит,Джо Гудрич,Тим Ситарц,Джон Грин мл.,Стив ДеРеллиан,Роберт Р. Шафер,Диана Морган-Описание: Адам и Харли едут на машине на свадьбу своей однокурсницы. На дороге друзья подбирают попутчицу. Пока выясняется, кто же станет ее бойфрендом на время поездки, какой-то урод-мутант убивает поблизости людей, некоторых лишает конечностей. Съехав на шоссе 55, они увидели, что сзади их догоняет огромная машина, за рулем которой сидел некто, в чьих глазах горело пламя ада. И началась гонка на выживание, в которой проигравший погибает…-
Качество видео: DVDRip-AVC
Контейнер: MKV
Видео кодек: MPEG4 AVC
Аудио кодек: AC3
Видео: MPEG-4, 720x480 @854x480, 29.970 fps ~1733 kbps
Аудио: 48 KHz, AC3, 2 ch ~224 Kbps
Cубтитры: отсутствуют

Рецензия

Машина-убийцаСмотрел этот фильм по телеку, поэтому ничего серьезного не ждал. Смотрел с удовольствием каждый раз, как показывали и повторяли.Весь фильм целиком выдержан в стиле легкого ужастика с комедийными элементами. Эти самые элементы гораздо большее, чем просто приколы в ужасах, и от этого фильм смотреть еще смешнее и еще менее страшно. Парочка моментов настолько стебные, что можно подавиться от смеха при просмотре. При всем при этом есть много сцен, в которых захватывает дух. Есть и такие, после которых могут присниться кошмары. Одна концовка чего стоит…Очень понравилась девушка, очень симпатизируют главные герои-раздолбаи.Я согласен, что это кино не культовое и не заслуживает твердой десятки. Это не серьезный триллер. Это просто легкий ужастик, который отлично идет в компании друзей. Мне этот фильм понравился очень сильно, потому что в своем жанре ("дешевый комедийный ужастик от Lions Gate») он очень хорош, если не велик.10 из 10для меня лично, т. к. очень тронуло.P.S.: Обзорщики, которые поставили оценки 6, очевидно, ждали серьезной психологичной картины, и чувства юмора у них, видимо, нет совсем. А более высокие оценки 8-8,5 для людей, не таких впечатлительных, как я, пойдут вполне!Великолепный фильм для любителей ужасов. Местами очень смешно, местами достаточно противно, так как крови и мясилова здесь достаточно.
В своем роде шедевр! Сейчас снимают вторую и третью части!

Media Info

Общее
Уникальный идентификатор : 245067234820921111617049495105600286015 (0xB85E3B8B36A632D59170135F1BD0ED3F)
Полное имя : J:\Дорожное чудовище\Monster Man.2003.DVDRip-AVC.[pirat.ca].mkv
Формат : Matroska
Версия формата : Version 2
Размер файла : 1,31 Гбайт
Продолжительность : 1 ч. 35 м.
Общий поток : 1958 Кбит/сек
Название фильма : Monster Man (2003)
Дата кодирования : UTC 2016-09-11 13:56:24 / UTC
Программа кодирования : mkvmerge v5.3.0 ('I could have danced') built on Feb 9 2012 10:38:07
Библиотека кодирования : libebml v1.2.3 + libmatroska v1.3.0 / Lavf55.12.0
Обложка : Yes
Attachments : Cover.jpgВидео
Идентификатор : 1
Формат : AVC
Формат/Информация : Advanced Video Codec
Профиль формата : [email protected]/* */
Параметр CABAC формата : Да
Параметр ReFrames формата : 9 кадров
Идентификатор кодека : V_MPEG4/ISO/AVC
Продолжительность : 1 ч. 35 м.
Битрейт : 1733 Кбит/сек
Ширина : 720 пикселей
Высота : 480 пикселей
Соотношение сторон : 16:9
Режим частоты кадров : Постоянный
Частота кадров : 29,970 (30000/1001) кадров/сек
Стандарт вещания : NTSC
Цветовое пространство : YUV
Субдискретизация насыщенности : 4:2:0
Битовая глубина : 8 бит
Тип развёртки : Прогрессивная
Бит/(Пиксели*Кадры) : 0.167
Размер потока : 1,13 Гбайт (87%)
Заголовок : MPEG-4, 720x480 @854x480, 29.970 fps ~1733 kbps
Библиотека кодирования : x264 core 142 r2479 dd79a61
Настройки программы : cabac=1 / ref=9 / deblock=1:-2:-2 / analyse=0x3:0x133 / me=umh / subme=11 / psy=1 / psy_rd=1.00:0.10 / mixed_ref=1 / me_range=24 / chroma_me=1 / trellis=2 / 8x8dct=1 / cqm=0 / deadzone=21,11 / fast_pskip=0 / chroma_qp_offset=-3 / threads=6 / lookahead_threads=1 / sliced_threads=0 / nr=0 / decimate=1 / interlaced=0 / bluray_compat=0 / constrained_intra=0 / bframes=16 / b_pyramid=2 / b_adapt=2 / b_bias=0 / direct=3 / weightb=1 / open_gop=0 / weightp=2 / keyint=300 / keyint_min=30 / scenecut=40 / intra_refresh=0 / rc_lookahead=60 / rc=2pass / mbtree=0 / bitrate=1733 / ratetol=1.0 / qcomp=0.60 / qpmin=0 / qpmax=69 / qpstep=4 / cplxblur=20.0 / qblur=0.5 / vbv_maxrate=62500 / vbv_bufsize=78125 / nal_hrd=none / filler=0 / ip_ratio=1.40 / pb_ratio=1.30 / aq=1:1.00
Язык : English
Default : Да
Forced : Нет
Цветовой диапазон : Limited
Основные цвета : BT.601 NTSC
Характеристики трансфера : BT.709
Коэффициенты матрицы : BT.601
Statistics Tags Issue : mkvmerge v9.3.1 ('Mask Machine') 64bit 2016-09-10 21:49:14 / mkvmerge v5.3.0 ('I could have danced') built on Feb 9 2012 10:38:07 2016-09-11 13:56:24 / UTC
FromStats_BitRate : 1731538
FromStats_Duration : 01:35:26.454000000
FromStats_FrameCount : 171622
FromStats_StreamSize : 1239446616Аудио
Идентификатор : 2
Формат : AC-3
Формат/Информация : Audio Coding 3
Профиль формата : Dolby Digital
Расширение режима : CM (complete main)
Параметр Endianness формата : Big
Идентификатор кодека : A_AC3
Продолжительность : 1 ч. 35 м.
Вид битрейта : Постоянный
Битрейт : 224 Кбит/сек
Каналы : 2 канала
Расположение каналов : Front: L R
Частота : 48,0 КГц
Частота кадров : 31,250 кадров/сек (1536 spf)
Метод сжатия : С потерями
Задержка видео : -5 мс.
Размер потока : 153 Мбайт (11%)
Заголовок : 48 KHz, AC3, 2 ch ~224 Kbps - MVO
Язык : Russian
Default : Да
Forced : Нет
Statistics Tags Issue : mkvmerge v9.3.1 ('Mask Machine') 64bit 2016-09-10 21:49:14 / mkvmerge v5.3.0 ('I could have danced') built on Feb 9 2012 10:38:07 2016-09-11 13:56:24 / UTC
FromStats_BitRate : 224000
FromStats_Duration : 01:35:26.464000000
FromStats_FrameCount : 178952
FromStats_StreamSize : 160340992Меню
00:00:00.000 : :Chapter 1
00:21:00.259 : :Chapter 2
00:40:39.571 : :Chapter 3
00:59:32.703 : :Chapter 4
01:15:30.593 : :Chapter 5
01:26:51.807 : :Chapter 6

Скриншот c названием фильма

Скриншоты

Трейлер
Яндекс.Метрика
Рейтинг@Mail.ru