[ Сегодня на трекере фрилич! Идет свободное скачивание без начисления Download ]

Морган / Morgan (2016 ужасы, фантастика, триллер, драма, детектив) CAMRip | D

 

Создавать темы 11-Сен-2016 14:05

-Морган / Morgan-Страна: США
Производство: Scott Free Productions
Год выпуска: 2016-Жанр: ужасы, фантастика, триллер, драма, детектив-Продолжительность: 01:25:20-Режиссер: Люк Скотт
Автор сценария: Сет В. Оуэн-В ролях: Кейт Мара, Аня Тейлор-Джой, Роуз Лесли, Майкл Йар, Тоби Джонс, Крис Салливан, Бойд Холбрук, Винетт Робинсон, Мишель Йео-Описание: Сотрудница по устранению аварий отправляется в отдалённый секретный филиал, где должна расследовать и оценить потери от ужасной катастрофы. На месте она узнаёт, что случившееся было вызвано, казалось бы, невинным «человеком», чьё существование само по себе является опасной тайной...- -Перевод: Профессиональный (полное дублирование)
Субтитры: нет-Качество: CAMRip
Формат: АVI
Видео кодек: XviD
Аудио кодек: АС3
Видео: 720x304 (2.35:1), 29.970 fps, XviD ~1 810 kbps avg
Аудио: 48 kHz, AC3 Dolby Digital, 2/0 (L,R) ch, ~384 kbps
Дата премьеры (мир): 1 сентября 2016
Дата премьеры (РФ): 8 сентября 2016, «Двадцатый Век Фокс СНГ»

Media Info

General
Complete name : Morgan.2O16.D.CAMRip.14OOMB_KOSHARA.avi
Format : AVI
Format/Info : Audio Video Interleave
File size : 1.37 GiB
Duration : 1h 25mn
Overall bit rate : 2 294 Kbps
Writing application : VirtualDubMod 1.5.10.2 (build 2540/release)
Writing library : VirtualDubMod build 2540/release
Video #0
ID : 0
Format : MPEG-4 Visual
Format profile : Advanced [email protected]
Format settings, BVOP : 2
Format settings, QPel : No
Format settings, GMC : No warppoints
Format settings, Matrix : Custom
Codec ID : XVID
Codec ID/Hint : XviD
Duration : 1h 25mn
Bit rate : 1 810 Kbps
Width : 720 pixels
Height : 304 pixels
Display aspect ratio : 2.35:1
Frame rate : 29.970 fps
Color space : YUV
Chroma subsampling : 4:2:0
Bit depth : 8 bits
Scan type : Progressive
Compression mode : Lossy
Bits/(Pixel*Frame) : 0.276
Stream size : 1.08 GiB (79%)
Writing library : XviD 1.2.1 (UTC 2008-12-04)
Audio #1
ID : 1
Format : AC-3
Format/Info : Audio Coding 3
Mode extension : CM (complete main)
Format settings, Endianness : Big
Codec ID : 2000
Duration : 1h 25mn
Bit rate mode : Constant
Bit rate : 384 Kbps
Channel(s) : 2 channels
Channel positions : Front: L R
Sampling rate : 48.0 KHz
Compression mode : Lossy
Stream size : 234 MiB (17%)
Alignment : Split accross interleaves

Скриншоты

Яндекс.Метрика
Рейтинг@Mail.ru