Один крутой полицейский / One Tough Cop (Бруно Баррето / Bruno Barreto) [1998 г., боевик, DVDRip] MVO [ТВ3]

 

Создавать темы 11-Сен-2016 02:42

-Один крутой полицейский / One Tough Cop-- Производство: США
Год выпуска: 1998 г.
Жанр: боевик
Продолжительность: 01:26:26Мировая премьера: 13 сентября 1998
Перевод: Профессиональный (многоголосый, закадровый) [ТВ3]
Режиссер: Бруно Баррето / Bruno Barreto-В ролях: Стивен Болдуин, Крис Пенн, Джина Гершон, Майк МакГлоун, Луис Гусман, Харви Эткин, Пол Гилфойл, Виктор Слезак, Эми Ирвинг, Фрэнк Пеллегрино, Майкл Рисполи, Пол Кэлдерон, Лори Энн Олтер, Джейсон Бликер, Фрэнк Джио, Эдмонте Сальвато, Бо Дитл, Дэвид Филиппи, Жан Пол, Дэна Дитль, Мариум Карвелл, Майк Сантана, Кристофер Брегман, 'Ладж' Райли, Сандра МакКлейн, Эзра Найт, Ингрид Роджерс-Описание: По книге Бо Дитла и Кена Гросса «Крутой полицейский». Бо Дитл вырос в бандитском районе, но стал полицейским. Его друг Риччи стал главой мафиозной группировки, но они остаются друзьями, не задают ненужных вопросов и частенько встречаются в баре Джои О`Хара, которая состоит в любовницах женатого и имеющего детей Риччи уже 4 года.У Бо есть напарник Дьюк Финнерти, чрезмерно увлекающийся азартными играми. Из-за него у Бо и возникли крупные неприятности с другом Риччи. Агенты ФБР между тем использовали недозволенные методы, чтобы добраться через Бо к организации Риччи, и отказавшегося помочь Дитла отстранили от службы.Между ним и Джои развивается роман, так как Риччи не может оставить детей. Любовь играть в долг доводит до гибели Дьюка Финнерти, когда-то спасшего Дитла от верной пули, и между Риччи и Дитлом возникает открытый конфликт. Чем закончится эта криминальная драма, построенная, скорее всего на полуавтобиографическом материале, любители жанра узнают сами.-
Качество видео: DVDRip
Контейнер: AVI
Видео кодек: XviD
Аудио кодек: AC3
Видео: 640x352 (1.82:1), 25 fps, XviD Final 1.0.3 (build 37) ~1802 kbps avg, 0.32 bit/pixel
Аудио: 48 kHz, AC3 Dolby Digital, 6 ch, ~448.00 kbps avg
Cубтитры: отсутствуют

Рецензия

Хорошая актерская работа.Просто отличный полицейский детектив, как для фильма на первой величины. История двух напарников в полицейском участке, которых хотят подставить, и они прикладывают все усилия чтобы доказать свою вину.Фильм бы не был настолько замечательным, в первую очередь благодаря замечательной игре брата известного актера Шона, Крис Пенна. Действительно играет он просто оригинально и своеобразно, ненормального полицейского, который любит девушек и поиграть в карты со стаканом виски. Жаль, что с этим актером не так уж много фильмов вышло, ведь его игра в «Бешеных псах» обратила на себя внимание многих кинокритиков, которые прочили ему светлое будущее.Отличное кино, в стиле начала 90-х.8 из 10.

Media Info

Общее
Полное имя : J:\Один крутой полицейский\One Tough Cop.1998.DVDrip.[pirat.ca].avi
Формат : AVI
Формат/Информация : Audio Video Interleave
Размер файла : 1,36 Гбайт
Продолжительность : 1 ч. 26 м.
Общий поток : 2260 Кбит/сек
Название фильма : One Tough Cop.1998.DVDrip.[pirat.ca]
Программа кодирования : VirtualDubMod 1.5.10.2 (build 2540/release)Видео
Идентификатор : 0
Формат : MPEG-4 Visual
Профиль формата : Advanced [email protected]/* */
Параметр BVOP формата : 2
Параметр QPel формата : Нет
Параметр GMC формата : Без точки перехода
Параметр матрицы формата : Default (H.263)
Режим смешивания : Сжатый битовый поток
Идентификатор кодека : XVID
Идентификатор кодека/Подсказка : XviD
Продолжительность : 1 ч. 26 м.
Битрейт : 1803 Кбит/сек
Ширина : 640 пикселей
Высота : 352 пикселя
Соотношение сторон : 16:9
Частота кадров : 25,000 кадров/сек
Цветовое пространство : YUV
Субдискретизация насыщенности : 4:2:0
Битовая глубина : 8 бит
Тип развёртки : Прогрессивная
Метод сжатия : С потерями
Бит/(Пиксели*Кадры) : 0.320
Размер потока : 1,09 Гбайт (80%)
Библиотека кодирования : XviD 1.0.3 (UTC 2004-12-20)Аудио
Идентификатор : 1
Формат : AC-3
Формат/Информация : Audio Coding 3
Расширение режима : CM (complete main)
Параметр Endianness формата : Big
Идентификатор кодека : 2000
Продолжительность : 1 ч. 26 м.
Вид битрейта : Постоянный
Битрейт : 448 Кбит/сек
Каналы : 6 каналов
Расположение каналов : Front: L C R, Side: L R, LFE
Частота : 48,0 КГц
Частота кадров : 31,250 кадров/сек (1536 spf)
Метод сжатия : С потерями
Задержка видео : 9 с. 994 мс.
Размер потока : 277 Мбайт (20%)
Выравнивание : Разделение по промежуткам
Продолжительность промежутка : 40 мс. (1,00 видеокадр)
Время предзагрузки промежутка : 500 мс.

Скриншот c названием фильма

Скриншоты

Трейлер
Яндекс.Метрика
Рейтинг@Mail.ru