Люди Икс: Апокалипсис / X-Men: Apocalypse (2016) WEB-DL [H.264/1080p-LQ]

 

Создавать темы 08-Сен-2016 23:34

- Люди Икс: Апокалипсис / X-Men: Apocalypse (2016) WEB-DL [H.264/1080p-LQ]- Производство: США, 20th Century Fox Film Corporation, Bad Hat Harry Productions, Donners' Company, Marvel Entertainment, Mel's Cite du Cinema, TSG Entertainment
Жанр: Фантастика, Фэнтези, Боевик, Приключения
Режиссер: Брайан Сингер
Продюсер: Саймон Кинберг, Хатч Паркер, Лорен Шулер Доннер
Актеры: Саймон Кинберг, Лорен Шулер Доннер, Брайан Сингер Актеры: Джеймс МакЭвой, Майкл Фассбендер, Дженнифер Лоуренс, Николас Холт, Оскар Айзек, Роуз Бирн, Эван Питерс, Джош Хелман, Софи Тернер, Тай Шеридан
Описание:
События «Дней Минувшего Будущего» оказали колоссальное влияние на мир, где мутанты и люди борются за свое место под Солнцем. В это нелегкое время Людям Икс предстоит столкнуться со своим самым опасным противником — древним мутантом Апокалипсисом, существом, схватка с которым может стать последней не только для мутантов, но и в принципе для всего человечества. В поисках способа победы над неуязвимым и бессмертным монстром Людям Икс предстоит узнать больше о происхождении своего вида. Но Апокалипсис неимоверно силен, и вероятность победы все уменьшается, ведь он твердо убежден, что только сильнейшие имеют право на выживание…
[thumb]http://multi-up.com/1117247[/thumb]
Возраст: 12+ (зрителям, достигшим 12 лет)
Рейтинг MPAA: PG-13 (детям до 13 лет просмотр нежелателен)
Дата мировой премьеры: 9 мая 2016
Дата российской премьеры: 19 мая 2016, «Двадцатый Век Фокс СНГ»
Продолжительность: 02:23:57
Качество видео: WEB-DL
Перевод: Дублированный (iTunes)
Вид субтитров: Вшитые отключаемые
Язык субтитров: Русский (Forced, Full), Английский (Forced, Full)
Видео: AVC/H.264, 1916x796 (2.40:1), 4532 kb/s, 23.976 fps
Аудио »1: AC3, 6 ch, 48 kHz, ~384 kbps (Русский)
Аудио »2: AC3, 6 ch, 48 kHz, ~384 kbps (Английский)
Аудио »3: AAC, 2 ch, 48 kHz, ~158 kbps (Descriptive/Английский)

MI

Общее
Уникальный идентификатор : 198788316600652078951207611770523085127 (0x958D3CB618609637AF78A7BF9E73E947)
Полное имя : D:\Релизы\Люди.Икс.Апокалипсис.2016.WEB-DL.[1080p].NNMClub.to.mkv
Формат : Matroska
Версия формата : Version 2
Размер файла : 5,49 Гбайт
Продолжительность : 2 ч. 23 м.
Общий поток : 5461 Кбит/сек
Дата кодирования : UTC 2016-09-08 18:10:43
Программа кодирования : mkvmerge v3.4.0 ('Rapunzel') built on May 15 2010 09:38:20
Библиотека кодирования : libebml v0.8.0 + libmatroska v0.9.0
Видео
Идентификатор : 1
Формат : AVC
Формат/Информация : Advanced Video Codec
Профиль формата : [email protected]
Параметр CABAC формата : Да
Параметр ReFrames формата : 5 кадров
Идентификатор кодека : V_MPEG4/ISO/AVC
Продолжительность : 2 ч. 23 м.
Ширина : 1916 пикселей
Высота : 796 пикселей
Соотношение сторон : 2,40:1
Режим частоты кадров : Постоянный
Частота кадров : 23,976 кадра/сек
Цветовое пространство : YUV
Субдискретизация насыщенности : 4:2:0
Битовая глубина : 8 бит
Тип развёртки : Прогрессивная
Язык : English
Default : Да
Forced : Нет
Цветовой диапазон : Limited
Основные цвета : BT.709
Характеристики трансфера : BT.709
Коэффициенты матрицы : BT.709
Аудио #1
Идентификатор : 2
Формат : AC-3
Формат/Информация : Audio Coding 3
Расширение режима : CM (complete main)
Параметр Endianness формата : Big
Идентификатор кодека : A_AC3
Продолжительность : 2 ч. 23 м.
Вид битрейта : Постоянный
Битрейт : 384 Кбит/сек
Каналы : 6 каналов
Расположение каналов : Front: L C R, Side: L R, LFE
Частота : 48,0 КГц
Частота кадров : 31,250 кадров/сек (1536 spf)
Метод сжатия : С потерями
Размер потока : 395 Мбайт (7%)
Заголовок : AC3 5.1 @ 384 kbps - DUB, iTunes
Язык : Russian
Default : Да
Forced : Нет
Аудио #2
Идентификатор : 3
Формат : AC-3
Формат/Информация : Audio Coding 3
Расширение режима : CM (complete main)
Параметр Endianness формата : Big
Идентификатор кодека : A_AC3
Продолжительность : 2 ч. 23 м.
Вид битрейта : Постоянный
Битрейт : 384 Кбит/сек
Каналы : 6 каналов
Расположение каналов : Front: L C R, Side: L R, LFE
Частота : 48,0 КГц
Частота кадров : 31,250 кадров/сек (1536 spf)
Метод сжатия : С потерями
Размер потока : 395 Мбайт (7%)
Заголовок : AC3 5.1 @ 384 kbps
Язык : English
Default : Нет
Forced : Нет
Аудио #3
Идентификатор : 4
Формат : AAC
Формат/Информация : Advanced Audio Codec
Профиль формата : LC
Идентификатор кодека : A_AAC
Продолжительность : 2 ч. 23 м.
Каналы : 2 канала
Расположение каналов : Front: L R
Частота : 48,0 КГц
Частота кадров : 46,875 кадров/сек (1024 spf)
Метод сжатия : С потерями
Заголовок : AAC 2.0 @ 160 kbps - Descriptive
Язык : English
Default : Нет
Forced : Нет
Текст #1
Идентификатор : 5
Формат : UTF-8
Идентификатор кодека : S_TEXT/UTF8
Идентификатор кодека/Информация : UTF-8 Plain Text
Заголовок : Forced, iTunes
Язык : Russian
Default : Да
Forced : Нет
Текст #2
Идентификатор : 6
Формат : UTF-8
Идентификатор кодека : S_TEXT/UTF8
Идентификатор кодека/Информация : UTF-8 Plain Text
Заголовок : iTunes
Язык : Russian
Default : Нет
Forced : Нет
Текст #3
Идентификатор : 7
Формат : UTF-8
Идентификатор кодека : S_TEXT/UTF8
Идентификатор кодека/Информация : UTF-8 Plain Text
Заголовок : Forced, iTunes
Язык : English
Default : Нет
Forced : Нет
Текст #4
Идентификатор : 8
Формат : UTF-8
Идентификатор кодека : S_TEXT/UTF8
Идентификатор кодека/Информация : UTF-8 Plain Text
Заголовок : iTunes
Язык : English
Default : Нет
Forced : Нет
Меню
00:00:00.000 : en:Chapter 01
00:08:17.747 : en:Chapter 02
00:14:12.143 : en:Chapter 03
00:18:06.043 : en:Chapter 04
00:24:54.451 : en:Chapter 05
00:30:44.300 : en:Chapter 06
00:36:34.191 : en:Chapter 07
00:40:59.039 : en:Chapter 08
00:45:55.460 : en:Chapter 09
00:49:23.251 : en:Chapter 10
00:55:21.567 : en:Chapter 11
00:59:35.779 : en:Chapter 12
01:04:42.627 : en:Chapter 13
01:12:34.807 : en:Chapter 14
01:17:31.854 : en:Chapter 15
01:22:17.472 : en:Chapter 16
01:27:44.549 : en:Chapter 17
01:34:04.762 : en:Chapter 18
01:36:45.589 : en:Chapter 19
01:39:49.856 : en:Chapter 20
01:43:33.329 : en:Chapter 21
01:49:56.337 : en:Chapter 22
01:55:07.314 : en:Chapter 23
01:57:20.613 : en:Chapter 24
02:03:49.501 : en:Chapter 25
02:07:55.663 : en:Chapter 26
02:10:58.053 : en:Chapter 27
02:14:04.989 : en:Chapter 28
Скриншоты:
Яндекс.Метрика
Рейтинг@Mail.ru