По следу / Skiptrace (Ренни Харлин / Renny Harlin) [2016 г., боевик, комедия, WEB-DLRip] MVO [Parovoz Production]

 

Создавать темы 08-Сен-2016 04:57

-По следу / Skiptrace-- Производство: Гонконг, США, Китай
Год выпуска: 2016 г.
Жанр: боевик, комедия
Продолжительность: 1:47:42Мировая премьера: 21 июля 2016
Перевод: Любительский (многоголосый, закадровый) [Parovoz Production]
Режиссер: Ренни Харлин / Renny Harlin-В ролях: Джеки Чан, Джонни Ноксвил, Бинбин Фань, Эрик Цан, Ив Торрес, Уинстон Чао, Ланьсинь Чжан, Майкл Вон, Джоэль Адриан, Пьер Бурдо-Описание: Саманта, крестница честного полицейского Бенни, попадает в неприятности и оказывается в руках у преступного синдиката. Во главе этой преступной группировки стоит человек, за которым Бенни следил около десяти лет. Чтобы спасти Саманту, копу нужно поймать американского шулера и обменять его на девушку.-
Качество видео: WEB-DLRip
Контейнер: AVI
Видео кодек: XviD
Аудио кодек: AC3
Видео: 720x304 (2.37:1), 23.976 fps, XviD MPEG-4 ~1946 kbps avg, 0.37 bit/pixel
Аудио: 48 kHz, AC3 Dolby Digital, 2/0 (L,R) ch, ~384 kbps
Cубтитры: отсутствуют

Рецензия

Достойное киноДавненько не появлялся на экранах великий Джеки Чан, не считая доспехи бога и полицейской истории. Они не слишком стали популярны, но все же это был Джеки и на него приятно было смотреть. И вот выходит ещё один фильм, который получил название По следу и я решил его сразу посмотреть. Судя по трейлеру намечалась ещё один комедийный боевик и посмотрев его, сразу хочется обрадоваться. Да друзья, наконец то Джеки вернулся. Именно тот Джеки, который радовал нас хорошими драками и юмором. В этом фильме все сделано в лучших традициях тех фильмов, что является огромным плюсом.1. Это сюжет. Сюжет фильма с первых минут начинает интриговать и затягивает до самого конца. История действительно получилась интересной и увлекательной. Да возможно она имеет ляпы, но не слишком значительные. «Сюжет расскажет об частном детективе Бенни, у которого похищают его племянницу. Похитителем оказывается человек, за которым Бенни следил долгое время и теперь ему придется спасать племянницу. В этот момент он встречается с болтливым Коннором, у которого на руках убивают незнакомку. Та передает Коннору телефон, на котором есть компромат на бандита и теперь Коннору и Бенни остается только объединиться и попытаться выполнить опасную миссию»2. Это персонажи. Первым делом хочется выделить конечно не превзойденного Джеки Чана, который сыграл полицейского. В этом фильме он выложился на все 100% и как говориться, вспомнил былое. Тут от него и шутки были и отличные боевые сцены и даже спеть успел. Просто невероятно, молодец Джеки. Следом хочется выделить Джонни Ноксвила, который сыграл Коннора. Актер тоже справился со своей ролью и смог очень не плохо повеселить. На нем фактически и держался юмор фильма, да и так он составил не плохую компанию Джеки. Вообще из них получился очень не плохой дуэт, конечно до Час Пик и Шанхайского Полденя не много не дотягивает, но все же тоже запоминается этот дуэт. Остальные актеры тоже сыграли хорошо и вписались в фильм.3. Это боевые сцены и саундтрек. Боевые сцены являются одним из главных достоинств данного фильма. Все они поставлены просто отлично, прям в лучших традициях фильмов с Джеки Чанам. Уверен многие это заценят, особенно фанаты Джеки. И также в фильме присутствует не плохой саундтрек, который отлично подходит картине и подбадривает фильм.Ещё стоит выделить не плохой юмор, который очень подбадривает картину в целом. В итоге вышел очень не плохой комедийный боевик, который можно даже сопоставить вместе с легендарными фильмами Джеки. Да в фильме есть и минусы, как например не много слабая вторая половина фильма или слишком быстрое смена действий, что способствует не слишком хороший монтаж, но все это затмевается, когда наступает финальная сцена и все встает на свои места, хоть она и получилась не слишком эпичной. Непревзойденный Джеки Чан, хорошие боевые сцены и саундтрек, не плохой сюжет и хороший юмор делает этот фильм доступным для хотя бы разового просмотра. Ведь этот фильм является символом, что Джеки все ещё может задать жару и должен понравиться фанатам актера и не только.7 из 10

Media Info

Общее
Полное имя : E:\По следу\Po sledu.2016.WEB-DLRip.[pirat.ca].avi
Формат : AVI
Формат/Информация : Audio Video Interleave
Размер файла : 1,75 Гбайт
Продолжительность : 1 ч. 47 м.
Общий поток : 2337 Кбит/сек
Программа кодирования : VirtualDubMod 1.5.10.3 (build 2550/release)
Библиотека кодирования : VirtualDubMod build 2550/releaseВидео
Идентификатор : 0
Формат : xvid
Идентификатор кодека : xvid
Продолжительность : 1 ч. 47 м.
Битрейт : 1946 Кбит/сек
Ширина : 720 пикселей
Высота : 304 пикселя
Соотношение сторон : 2,40:1
Частота кадров : 23,976 кадра/сек
Тип развёртки : Прогрессивная
Бит/(Пиксели*Кадры) : 0.371
Размер потока : 1,46 Гбайт (83%)Аудио
Идентификатор : 1
Формат : AC-3
Формат/Информация : Audio Coding 3
Расширение режима : CM (complete main)
Параметр Endianness формата : Big
Идентификатор кодека : 2000
Продолжительность : 1 ч. 47 м.
Вид битрейта : Постоянный
Битрейт : 384 Кбит/сек
Каналы : 2 канала
Расположение каналов : Front: L R
Частота : 48,0 КГц
Частота кадров : 31,250 кадров/сек (1536 spf)
Битовая глубина : 16 бит
Метод сжатия : С потерями
Размер потока : 295 Мбайт (16%)
Выравнивание : Разделение по промежуткам
Продолжительность промежутка : 80 мс. (1,92 видеокадра)
Время предзагрузки промежутка : 560 мс.

Скриншот c названием фильма

Скриншоты

Трейлер

Яндекс.Метрика
Рейтинг@Mail.ru