[ Сегодня на трекере фрилич! Идет свободное скачивание без начисления Download ]

Не дотрагиваясь / Bez doteku (Maеуж Члюпасек, Михал Самир/ Matej Chlupacek, Michal Samir) [Триллер, Драма, 2013] (DVDRip) [VO]

 

Создавать темы 05-Янв-2014 08:59

Не дотрагиваясь / Bez doteku- Год выпуска: 2013
Производство: Чехия
Жанр: Триллер, Драма
Перевод: Одноголосый закадровый, любительский
Субтитры: Отсутствуют
Дата мировой премьеры: 29 июня 2013
Режиссер: Matej Chlupacek, Михал Самир
Продюсер: Michal Chlupacek, Александр Суркала
Актеры: Криштоф Гадек, Адриан Ястрабан, Петра Лустигова, Ондржей Малый, Мэриэн Роден, Хана Вагнерова, Tereza Vítu
Описание фильма:
Когда ещё Ёлана была совсем юной, то её возжелал как женщину собственный отчим. Она была как загнанный зверь, ведь её собственная мать на всё это закрывала глаза. В последствии жизненный путь её довёл до борделя. И всё хуже в том, что бедняжка сама не хочет понимать всё что в данный момент с ней происходит и не хочет изменить жизнь на лучшее...

Продолжительность: 01:09:35
Качество видео: DVDRip
Видеокодек: Xvid
Битрейт видео: ~1354 Kbit/s
Размер кадра: 704 x 304
Аудиокодек: MP3 2.0
Битрейт аудио: 192 Kbit/s

MediaInfo


Общее
Формат : AVI
Формат/Информация : Audio Video Interleave
Размер файла : 774 Мбайт
Продолжительность : 1 ч. 9 м.
Общий поток : 1556 Кбит/сек
Программа кодирования : VirtualDubMod 1.5.10.2 (build 2540/release)
Библиотека кодирования : VirtualDub build 34753/release
Видео
Идентификатор : 0
Формат : MPEG-4 Visual
Профиль формата : Advanced [email protected]
Параметр BVOP формата : 2
Параметр QPel формата : Нет
Параметр GMC формата : Без точки перехода
Параметр матрицы формата : Default (MPEG)
Идентификатор кодека : XVID
Идентификатор кодека/Подсказка : XviD
Продолжительность : 1 ч. 9 м.
Битрейт : 1354 Кбит/сек
Ширина : 704 пикс.
Высота : 304 пикс.
Соотношение сторон : 2,35:1
Частота кадров : 25,000 кадр/сек
Цветовое пространство : YUV
Подвыборка цветности : 4:2:0
Битовая глубина : 8 бит
Тип развёртки : Прогрессивная
Метод сжатия : С потерями
Бит/(Пиксели*Кадры) : 0.253
Размер потока : 674 Мбайт (87%)
Библиотека кодирования : XviD 1.2.1 (UTC 2008-12-04)
Аудио
Идентификатор : 1
Формат : MPEG Audio
Версия формата : Version 1
Профиль формата : Layer 3
Идентификатор кодека : 55
Идентификатор кодека/Подсказка : MP3
Продолжительность : 1 ч. 9 м.
Вид битрейта : Постоянный
Битрейт : 192 Кбит/сек
Каналы : 2 канала
Частота : 44,1 КГц
Метод сжатия : С потерями
Размер потока : 95,6 Мбайт (12%)
Выравнивание : Разделение по промежуткам
Продолжительность промежутка : 40 мс. (1,00 видеокадр)
Время предзагрузки промежутка : 500 ms
Скриншоты:

Яндекс.Метрика
Рейтинг@Mail.ru