По следу / Skiptrace (Ренни Харлин / Renny Harlin ) [2016, Боевик, Комедия, WEB-DL, 1080p-LQ]

 

Создавать темы 04-Сен-2016 09:18

По следу / Skiptrace-- Год: 2016
Производство: США, Китай, Гонконг, Cider Mill Pictures, Dasym Enetertainment
Жанр: Боевик, Комедия
Режиссер: Ренни Харлин
Продюсер: Джеки Чан, Чарли Кокер, Давид Герсон
Актеры: Джеки Чан, Джонни Ноксвилл, Бинбин Фань, Эрик Цан, Ив Торрес, Уинстон Чао, Ланьсинь Чжан, Майкл Вонг, Джоэль Адриан, Пьер Бурдо
Описание:
Племянница честного полицейского попадает в неприятности и оказывается в руках у преступного синдиката. Во главе преступной группировки стоит человек, за которым протагонист следил около десяти лет. Чтобы спасти родственницу, копу приходится поймать болтливого американского игрока, с чьей помощью он может выручить девушку.


Рейтинг MPAA: PG-13 (детям до 13 лет просмотр нежелателен)
Дата мировой премьеры: 21 июля 2016
Продолжительность: 01:47:54
Качество видео: WEB-DL 1080p SAMPLE
Перевод: Любительский многоголосый (СПД)
Реклама: Присутствуют голосовые и текстовые вставки рекламы.
Видео: AVC/H.264, 1912x792, 4153 Kbps
Аудио: AC3, 2 ch, 384 Kbps

МИ

Общее
Полное имя                               : D:\Skiptrace.2016.P.WEB-DL.1O8Op.mkv
Формат                                   : Matroska
Версия формата                           : Version 2
Размер файла                             : 3,49 Гбайт
Продолжительность                        : 1 ч. 47 м.
Режим общего битрейта                    : Постоянный
Общий поток                              : 4629 Кбит/сек
Дата кодирования                         : UTC 2016-09-03 19:10:37
Программа кодирования                    : mkvmerge v8.3.0 ('Over the Horizon') 64bit
Библиотека кодирования                   : libebml v1.3.1 + libmatroska v1.4.2
DURATION                                 : 01:47:54.301000000
NUMBER_OF_FRAMES                         : 155228
NUMBER_OF_BYTES                          : 3433650702
_STATISTICS_WRITING_APP                  : mkvmerge v8.3.0 ('Over the Horizon') 64bit
_STATISTICS_WRITING_DATE_UTC             : 2016-09-03 19:10:37
_STATISTICS_TAGS                         : BPS DURATION NUMBER_OF_FRAMES NUMBER_OF_BYTES
Видео
Идентификатор                            : 1
Формат                                   : AVC
Формат/Информация                        : Advanced Video Codec
Профиль формата                          : [email protected]
Параметр CABAC формата                   : Да
Параметр ReFrames формата                : 5 кадров
Идентификатор кодека                     : V_MPEG4/ISO/AVC
Продолжительность                        : 1 ч. 47 м.
Вид битрейта                             : Постоянный
Битрейт                                  : 4153 Кбит/сек
Номинальный битрейт                      : 4600 Кбит/сек
Ширина                                   : 1912 пикселей
Высота                                   : 792 пикселя
Соотношение сторон                       : 2,40:1
Режим частоты кадров                     : Постоянный
Частота кадров                           : 23,976 кадра/сек
Стандарт вещания                         : Component
Цветовое пространство                    : YUV
Субдискретизация насыщенности            : 4:2:0
Битовая глубина                          : 8 бит
Тип развёртки                            : Прогрессивная
Бит/(Пиксели*Кадры)                      : 0.114
Размер потока                            : 3,13 Гбайт (90%)
Default                                  : Да
Forced                                   : Нет
Цветовой диапазон                        : Limited
Основные цвета                           : BT.709
Характеристики трансфера                 : BT.709
Коэффициенты матрицы                     : BT.709
Аудио
Идентификатор                            : 2
Формат                                   : AC-3
Формат/Информация                        : Audio Coding 3
Расширение режима                        : CM (complete main)
Параметр Endianness формата              : Big
Идентификатор кодека                     : A_AC3
Продолжительность                        : 1 ч. 47 м.
Вид битрейта                             : Постоянный
Битрейт                                  : 384 Кбит/сек
Каналы                                   : 2 канала
Расположение каналов                     : Front: L R
Частота                                  : 48,0 КГц
Битовая глубина                          : 16 бит
Метод сжатия                             : С потерями
Размер потока                            : 296 Мбайт (8%)
Default                                  : Да
Forced                                   : Нет
Скриншоты:

Создавать темы 04-Сен-2016 11:39 (спустя 2 часа 20 минут)

Ничего фильм получился, смешной... редко такое встретишь...
Яндекс.Метрика
Рейтинг@Mail.ru