[ Сегодня на трекере фрилич! Идет свободное скачивание без начисления Download ]

Костюмы в законе / Форс-мажоры (1-6 сезоны: 1-84 серии из 92) (2011-2016) WEB-DLRip | Первый канал, Бяко Рекордс, NewStudio

 

Создавать темы 02-Сен-2016 21:07

Костюмы в законе / Форс-мажоры (1-6 сезоны: 1-84 серии из 92) (2011-2016) WEB-DLRip | Первый канал, Бяко Рекордс, NewStudioНазвание: Форс-мажоры (Костюмы, Костюмы в Законе)
Оригинальное название: Suits
Год выпуска: 2011-2016
Жанр: Драма, криминал, юриспруденция, комедия
Выпущено: США, Dutch Oven
Режиссер: Кевин Брэй, Джон Скотт
В ролях: Гэбриел Махт, Патрик Дж. Адамс, Рик Хоффман, Меган Маркл, Сара Рафферти, Джина Торрес, Макс Топплин, Дэвид Костабайл, Ванесса Рэй, Том Липински, Ребекка Шалл, Гэри Коул, Аманда Шулл, Мишель Фэйрли, Конлет Хилл, Эрик Клоуз, Эбигейл Спенсер, Макс Бисли, Рэйчел Харрис, Адам Годли, Титус Уэлливер, Надя Дажани
О фильме: Случайная встреча блестящего адвоката Харви Спектра и парня – недоучки с гениальной памятью и математическим талантом Майка Росса приводит к неожиданным последствиям: впечатлившись способностями молодого человека, юрист нанимает его в качестве помощника. Так был создан необыкновенно продуктивно выполняющий свою работу адвокатский тандем, скрепленный дружбой и преданностью его участников. Однако наступает момент, когда тщательно хранимый секрет восходящего светила юридических кругов Майка Росса становится опасным для обоих друзей…

MediaInfo

Общее
Полное имя : H:\Suits.S01-S06.WEB-DLRip\Season6\Suits.s06e01.WEBDLRip.NewStudio.TV.avi
Формат : AVI
Формат/Информация : Audio Video Interleave
Размер файла : 641 Мбайт
Продолжительность : 42 м. 15 с.
Общий поток : 2121 Кбит/сек
Программа кодирования : VirtualDubMod 1.5.10.2 (build 2540/release)
Библиотека кодирования : VirtualDubMod build 2540/release
Видео
Идентификатор : 0
Формат : MPEG-4 Visual
Профиль формата : Advanced [email protected]
Параметр BVOP формата : 2
Параметр QPel формата : Да
Параметр GMC формата : Без точки перехода
Параметр матрицы формата : Default (MPEG)
Режим смешивания : Сжатый битовый поток
Идентификатор кодека : XVID
Идентификатор кодека/Подсказка : XviD
Продолжительность : 42 м. 15 с.
Битрейт : 1851 Кбит/сек
Ширина : 720 пикселей
Высота : 400 пикселей
Соотношение сторон : 16:9
Частота кадров : 23,976 (23976/1000) кадра/сек
Цветовое пространство : YUV
Субдискретизация насыщенности : 4:2:0
Битовая глубина : 8 бит
Тип развёртки : Прогрессивная
Метод сжатия : С потерями
Бит/(Пиксели*Кадры) : 0.268
Размер потока : 559 Мбайт (87%)
Библиотека кодирования : XviD 73
Аудио #1
Идентификатор : 1
Формат : MPEG Audio
Версия формата : Version 1
Профиль формата : Layer 3
Режим : Joint stereo
Расширение режима : MS Stereo
Идентификатор кодека : 55
Идентификатор кодека/Подсказка : MP3
Продолжительность : 42 м. 15 с.
Вид битрейта : Постоянный
Битрейт : 128 Кбит/сек
Каналы : 2 канала
Частота : 48,0 КГц
Метод сжатия : С потерями
Размер потока : 38,7 Мбайт (6%)
Выравнивание : Соединение по промежуткам
Продолжительность промежутка : 42 мс. (1,00 видеокадр)
Время предзагрузки промежутка : 504 мс.
Библиотека кодирования : LAME3.99r
Настройки программы : -m j -V 4 -q 2 -lowpass 17 -b 128
Аудио #2
Идентификатор : 2
Формат : MPEG Audio
Версия формата : Version 1
Профиль формата : Layer 3
Режим : Joint stereo
Расширение режима : MS Stereo
Идентификатор кодека : 55
Идентификатор кодека/Подсказка : MP3
Продолжительность : 42 м. 15 с.
Вид битрейта : Постоянный
Битрейт : 128 Кбит/сек
Каналы : 2 канала
Частота : 48,0 КГц
Метод сжатия : С потерями
Размер потока : 38,7 Мбайт (6%)
Выравнивание : Соединение по промежуткам
Продолжительность промежутка : 42 мс. (1,00 видеокадр)
Время предзагрузки промежутка : 504 мс.
Библиотека кодирования : LAME3.99r
Настройки программы : -m j -V 4 -q 2 -lowpass 17 -b 128
Техданные
Видео данные: XviD, ~ 1700 Кбит/с, 720x400
Аудио данные: Русский, английский (МР3, AC3, 2 ch, 128-192 Кбит/с)
Перевод: Профессиональный многоголосый [Первый канал] - 1 сезон
Перевод: Профессиональный двухголосный [Бяко Рекордс] - 2-3 сезоны
Перевод: Профессиональный двухголосный [NewStudio] - 4-6 сезоны
Продолжительность: 84 х ~ 00:48:00Скриншоты
Яндекс.Метрика
Рейтинг@Mail.ru