Вавилон 5: Река душ (ТВ) / Babylon 5: The River of Souls (Джанет Грик / Janet Greek) [1998 г., фантастика, боевик, приключения, DVDRip] MVO [R5]

 

Создавать темы 29-Авг-2016 05:16

-Вавилон 5: Река душ (ТВ) / Babylon 5: The River of Souls-- Производство: США, Babylonian Productions, Turner Network Television (TNT)
Год выпуска: 1998 г.
Жанр: фантастика, боевик, приключения
Продолжительность: 01:33:41Мировая премьера: 8 ноября 1998
Перевод: Профессиональный (многоголосый, закадровый) [R5]
Режиссер: Джанет Грик / Janet Greek-В ролях: Джерри Дойл, Трэйси Скоггинс, Джефф Конэвей, Ричард Биггз, Иэн МакШейн, Мартин Шин, Джефф Дусетте, Вейн Александр, Боб Амарал, Beege Barkette-Описание: Эта серия о `мертвых душах`, стремящихся, во что бы то ни стало обрести телесную оболочку и вернуться в мир живых. Сосуд с душами случайно попадает на космическую станцию Вавилон 5, на которой сразу же начинают происходить странные и необъяснимые события.-
Качество видео: DVDRip
Контейнер: AVI
Видео кодек: XviD
Аудио кодек: MP3
Видео: 688x384 (1.79:1), 23.976 fps, XviD MPEG-4 ~2791 kbps avg, 0.44 bit/pixel
Аудио: 48 kHz, MPEG Layer 3, 2 ch, ~128.00 kbps avg
Cубтитры: отсутствуют

Media Info

Общее
Полное имя : C:\герои 7\Babylon 5\Babylon 5.The River Of Souls.1998.DVDRip.[pirat.ca].avi
Формат : AVI
Формат/Информация : Audio Video Interleave
Размер файла : 1,92 Гбайт
Продолжительность : 1 ч. 33 м.
Общий поток : 2929 Кбит/сек
Программа кодирования : VirtualDubMod 1.5.10.3 (build 2550/release)
Библиотека кодирования : VirtualDubMod build 2550/releaseВидео
Идентификатор : 0
Формат : MPEG-4 Visual
Профиль формата : Advanced [email protected]/* */
Параметр BVOP формата : 2
Параметр QPel формата : Нет
Параметр GMC формата : Без точки перехода
Параметр матрицы формата : Default (H.263)
Режим смешивания : Сжатый битовый поток
Идентификатор кодека : XVID
Идентификатор кодека/Подсказка : XviD
Продолжительность : 1 ч. 33 м.
Битрейт : 2792 Кбит/сек
Ширина : 688 пикселей
Высота : 384 пикселя
Соотношение сторон : 16:9
Частота кадров : 23,976 (23976/1000) кадра/сек
Цветовое пространство : YUV
Субдискретизация насыщенности : 4:2:0
Битовая глубина : 8 бит
Тип развёртки : Прогрессивная
Метод сжатия : С потерями
Бит/(Пиксели*Кадры) : 0.441
Размер потока : 1,83 Гбайт (95%)
Библиотека кодирования : XviD 1.2.1 (UTC 2008-12-04)Аудио
Идентификатор : 1
Формат : MPEG Audio
Версия формата : Version 1
Профиль формата : Layer 3
Режим : Joint stereo
Расширение режима : MS Stereo
Идентификатор кодека : 55
Идентификатор кодека/Подсказка : MP3
Продолжительность : 1 ч. 33 м.
Вид битрейта : Постоянный
Битрейт : 128 Кбит/сек
Каналы : 2 канала
Частота : 48,0 КГц
Метод сжатия : С потерями
Размер потока : 85,8 Мбайт (4%)
Выравнивание : Соединение по промежуткам
Продолжительность промежутка : 42 мс. (1,00 видеокадр)
Время предзагрузки промежутка : 504 мс.
Библиотека кодирования : LAME3.97
Настройки программы : -m j -V 4 -q 2 -lowpass 17 -b 128

Скриншот c названием фильма

Скриншоты

-Трейлер
Яндекс.Метрика
Рейтинг@Mail.ru