Агата Клери / Agathe Cléry (Этьен Шатилье / Étienne Chatiliez) [2008 г., комедия, DVDRip] DVO

 

Создавать темы 29-Авг-2016 05:03

-Агата Клери / Agathe Cléry-- Производство: Франция, Produire à Paris, Téléma, TF1 Films Production
Год выпуска: 2008 г.
Жанр: комедия
Продолжительность: 01:47:01Мировая премьера: 11 ноября 2008
Перевод: Профессиональный (двухголосый, закадровый)
Режиссер: Этьен Шатилье / Étienne Chatiliez-В ролях: Валери Лемерсье, Энтони Кэвэна, Доминик Лаванан, Изабель Нанти, Жак Буде, Артюс де Пенгерн, Жан Рошфор, Валентайн Варела, Надеж Боссон-Дьянь, Бернар Алан, Франсуа Дювал, Элиз Отценбергер, Джамель Бенсала, Андре Пенверн, Жюли Ферье, Флориан Гутьера, Клементин Лефевр, Натали Кребс, Лорен Жерар, Стефани Ланье, Патрис Тибо, Валери Ивен, Жан-Люк Поррас, Луис-Мари Одубер-Описание: Агата Клери больна. Симптомы болезни не такие уж редкие: снобизм, безжалостность, нетерпимость, расизм. Но совсем другая болезнь станет для неё — успешного менеджера по маркетингу крупной косметической компаний — настоящим испытанием. Болезнь Аддисона, редкое заболевание, которое за одну ночь изменит цвет кожи героини, заставит её пересмотреть свои взгляды на межнациональные взаимоотношения в обществе.-
Качество видео: DVDRip
Контейнер: AVI
Видео кодек: XviD
Аудио кодек: MP3
Видео: 576x304 (1.89:1), 25 fps, XviD MPEG-4 ~770 kbps avg, 0.18 bit/pixel
Аудио: 48 kHz, MPEG Layer 3, 2 ch, ~128.00 kbps avg
Cубтитры: отсутствуют

Рецензия

Белое и черноеОбратила внимание на этот фильм из-за постера и описания. Как известно из аннотации, симптомы «болезни» Агаты: снобизм, безжалостность, нетерпимость, расизм. Но совсем другая болезнь станет для неё настоящим испытанием — болезнь Аддисона, редкое заболевание, которое изменит цвет кожи героини и заставит её пересмотреть свои взгляды на межнациональные взаимоотношения в обществе.В начале фильма идут легкие игривые титры в мультяшном стиле.Понятия не имела, что это, оказывается, мюзикл.Сразу показалась знакомой актриса, исполняющая главную роль — Валери Лемерсье. Оказалось, что я видела её до этого как минимум в пяти фильмах и нигде она мне не запомнилась накрепко. Но в «Агата Клери» её исполнение французской бизнес-леди с крайне негативным отношением к людям с иными расовыми признаками смотрится очень интересно и в образе темнокожей с пышной шевелюрой она мне понравилась гораздо больше, нежели светлокожей.Также впечатлили Жак Буде и Доминик Лаванан, игравшие родителей Агаты Клери. У них получилась очень душевная, сохранившая между собой тепло, а в своем доме уют пожилая семейная пара, любящая свою единственную дочь, несмотря на её нелегкий характер.Две дамы-подружки и первый кавалер Агаты в течение экранного времени, на мой взгляд, раскрыты исчерпывающе. Одна подружка (Валентайн Варела) явно слегка завидует Агате и не прочь удовлетворенно улыбнуться, когда у успешной во всех сферах Агаты начинаются проблемы, обусловленные происходящими с ней в связи с болезнью изменениями. Другая подружка (Изабель Нанти) — настоящая, которая с Агатой и в горе, и в радости, всегда найдет повод подбодрить и в завершении ленты так оптимистично знакомится с адвокатом Агаты. Артюс де Пенгерн достоверно изобразил подкаблучника, не имеющего собственного мнения, пасующего перед любыми сложностями и не имеющего смелости сказать важные вещи Агате в лицо.Отличные босс-папа и боссы-сыновья. Казалось бы — им отведено в фильме всего 5-10 минут экранного времени, но эти персонажи запоминаются (с первых минут и эпического прошествования по коридору).Было приятно смотреть на массовку, исполнявшую танцевальные и песенные номера — привлекательные и интересные лица. Кстати, вот эти номера — одно из самых больших достоинств картины. Происходят иногда в очень неожиданном месте, иногда в необычной форме. Первый номер на перроне вокзала с людьми в деловых костюмах очень внушительный, стильный. Также запомнились песня про расизм, танец под Майкла Джексона, танец на дискотеке. Но, думаю, Валери не танцевала сама — достаточно посмотреть внимательно на её лицо в сцене танца любви с первого взгляда, видно, что оно наложено с помощью компьютера (вот до чего техника дошла).Мораль фильма читается достаточно явно и радует, что главная героиня преодолела-таки нелегкий путь достижения гармонии с собой и окружающим миром.Итого. В этом кино можно обнаружить живые настоящие характеры персонажей, достойное актерское воплощение, интересную фабулу, ироничные танцы и песни, легкий юмор («Папа, ну правда же Агата была раньше белой, но потом заболела»), а также забавные финальные титры (про доктора, врача, боссов — буквально 1 минута). Но мне показалось, что фильм чуть-чуть затянутый, особенно любовная линия во второй половине. И только поэтому8 из 10

Media Info

Общее
Полное имя : E:\!Агата Клери\Agathe Clery.2008.DVDRip.[pirat.ca].avi
Формат : AVI
Формат/Информация : Audio Video Interleave
Размер файла : 696 Мбайт
Продолжительность : 1 ч. 47 м.
Общий поток : 909 Кбит/секВидео
Идентификатор : 0
Формат : MPEG-4 Visual
Профиль формата : Advanced [email protected]/* */
Параметр BVOP формата : 2
Параметр QPel формата : Нет
Параметр GMC формата : Без точки перехода
Параметр матрицы формата : Default (H.263)
Режим смешивания : Сжатый битовый поток
Идентификатор кодека : XVID
Идентификатор кодека/Подсказка : XviD
Продолжительность : 1 ч. 47 м.
Битрейт : 771 Кбит/сек
Ширина : 576 пикселей
Высота : 304 пикселя
Соотношение сторон : 1,895
Частота кадров : 25,000 кадров/сек
Цветовое пространство : YUV
Субдискретизация насыщенности : 4:2:0
Битовая глубина : 8 бит
Тип развёртки : Прогрессивная
Метод сжатия : С потерями
Бит/(Пиксели*Кадры) : 0.176
Размер потока : 590 Мбайт (85%)
Библиотека кодирования : XviD 1.1.2 (UTC 2006-11-01)Аудио
Идентификатор : 1
Формат : MPEG Audio
Версия формата : Version 1
Профиль формата : Layer 3
Режим : Joint stereo
Расширение режима : MS Stereo
Идентификатор кодека : 55
Идентификатор кодека/Подсказка : MP3
Продолжительность : 1 ч. 47 м.
Вид битрейта : Постоянный
Битрейт : 128 Кбит/сек
Каналы : 2 канала
Частота : 48,0 КГц
Метод сжатия : С потерями
Размер потока : 98,0 Мбайт (14%)
Выравнивание : Соединение по промежуткам
Продолжительность промежутка : 40 мс. (1,00 видеокадр)
Время предзагрузки промежутка : 504 мс.

Скриншот c названием фильма

Скриншоты

-Трейлер
Яндекс.Метрика
Рейтинг@Mail.ru