Мои супер психо-сладкие 16: Часть 3 (ТВ) / My Super Psycho Sweet 16: Part 3 (Джейкоб Гентри / Jacob Gentry) [2012 г., Ужасы, слешер, HDRip] DVO [DeadSno & den904]

 

Создавать темы 29-Авг-2016 04:49

-Мои супер психо-сладкие 16: Часть 3 (ТВ) / My Super Psycho Sweet 16: Part 3-- Производство: США, POP Films, ...
Год выпуска: 2012 г.
Жанр: Ужасы, слешер
Продолжительность: 01:21:30Мировая премьера: 13 марта 2012
Перевод: Любительский (двухголосый, закадровый) [DeadSno & den904]
Режиссер: Джейкоб Гентри / Jacob Gentry-В ролях: Лорен МакНайт, Кирстен Праут, Райан Сипек, Джиллиан Роуз Рид, Нико Пепадж, Бен Уинчелл, Онира Саттервайт, Отем Диал, Рой МакКрири, Джейкоб Гентри-Описание: Скай Роттер наконец-то готова оставить свое кровавое прошлое позади. Но когда она решает отправиться в колледж, то получает неожиданный звонок от ее сводной сестры Алекс. Это будет последним «сладким шестнадцатилетием», где Скай необходимо присутствовать и последним шансом, который ей выпадет, чтобы выйти из тени своего отца раз и навсегда.-
Качество видео: HDRip
Контейнер: AVI
Видео кодек: Другой MPEG4
Аудио кодек: AC3
Видео: 960x540 (1.78:1), 29.970 fps, Intel ITU H.264 ~2466 kbps avg, 0.16 bit/pixel
Аудио: 48 kHz, AC3 Dolby Digital, 2/0 (L,R) ch, ~192 kbps
Cубтитры: отсутствуют

Рецензия

Скай Роттер возвращаетсяДанная часть из всей франшизы My Super Psycho Sweet 16, на мой взгляд, является самой лучшей. И пусть актерская игра явно похрамывает, все же в фильме больше плюсов, чем минусов и я несказанно рад, что канал MTV, в канун Хэллоуина, запустили эту ТВ франшизу.Что такое фильм MTV? Это красивая стильная картинка, симпатичные молодые актеры и просто наикрутейшие саундтреки. В «Моих супер-психо сладких 16» это все есть.Скай Роттер потихоньку приходит в себя после резни, которую в очередной раз учинил ее отец. Она живет у родителей своего бойфренда и планирует отправиться учиться в колледж. Со своей новой подругой, Скай отправляется в путь и по дороге получает звонок от сводной сестры Алекс, с которой она не общалась с того самого момента, когда отец Скай поубивал кучу людей на вечеринке в заброшенном клубе. Алекс просит приехать сестру на свое шестнадцатилетие и Скай соглашается. Но в разгар вечеринки происходит серия странных и пугающих событий, все выходы в доме блокируются и Скай понимает, что ее кровавое прошлое вернулось снова.Эта часть является заключительной во всей серии фильмов и благополучно замыкает ее. Сюжетная линия намного отличается от предыдущих фильмов, что делает My Super Psycho Sweet 16: Part 3 гораздо интереснее и интригующе, чем предыдущие части, снятые в стиле типичных слэшеров.Лорен МакНайт, она же Скай Роттер, ушла из образа плаксивой дочери маньяка и перевоплотилась в боевую девушку, которая сможет дать отпор хоть целой гвардии серийных убийц. И хотя игра актрисы весьма слабая, впечатления от просмотра она не портит.Кирстен Праут, она же сводная сестра Алекс, играет как раз-таки на уровне.Остальные актеры играли тоже откровенно слабо — особенно негритянка, но опять же впечатления от просмотра не испортили.Работа оператора на высоте. Красивые виды роскошного особняка, шикарные интерьеры и финальная сцена в лесу сняты на пять с плюсом.Музыка, а точнее саундтреки — подобраны лучше некуда. Big Black Delta «Ifuckingloveyou», The Jezabells «Catch Me», Kauf «Relocate», We Cry Diamonds «Don`t Get Caught» и Alberta Cross «Wait» еще надолго останутся в моем плеере.В заключении хочу сказать, что My Super Psycho Sweet 16: Part 3 является очень даже неплохим слэшером и удачным завершением всей франшизы. Смотреть только фанатам серии фильмов о Скай Роттер и любителям слэшеров.8 из 10

Media Info

Общее
Полное имя : E:\Мои супер психо-сладкие 16\Psycho-16.2012.HDRip.[pirat.ca].avi
Формат : AVI
Формат/Информация : Audio Video Interleave
Размер файла : 1,52 Гбайт
Продолжительность : 1 ч. 21 м.
Общий поток : 2670 Кбит/сек
Название фильма : Psycho-16.2012.HDRip.[pirat.ca]
Программа кодирования : VirtualDubModRus 1.5.10.2 (build 2542/release)Видео
Идентификатор : 0
Формат : AVC
Формат/Информация : Advanced Video Codec
Профиль формата : [email protected]/* */
Параметр CABAC формата : Да
Параметр ReFrames формата : 1 кадр
Идентификатор кодека : H264
Продолжительность : 1 ч. 21 м.
Битрейт : 2461 Кбит/сек
Ширина : 960 пикселей
Высота : 540 пикселей
Соотношение сторон : 16:9
Режим частоты кадров : Переменный
Частота кадров : 29,970 кадров/сек
Цветовое пространство : YUV
Субдискретизация насыщенности : 4:2:0
Битовая глубина : 8 бит
Тип развёртки : Прогрессивная
Бит/(Пиксели*Кадры) : 0.158
Размер потока : 1,40 Гбайт (92%)
Библиотека кодирования : x264 core 129Аудио
Идентификатор : 1
Формат : AC-3
Формат/Информация : Audio Coding 3
Расширение режима : CM (complete main)
Параметр Endianness формата : Big
Идентификатор кодека : 2000
Продолжительность : 1 ч. 21 м.
Вид битрейта : Постоянный
Битрейт : 192 Кбит/сек
Каналы : 2 канала
Расположение каналов : Front: L R
Частота : 48,0 КГц
Частота кадров : 31,250 кадров/сек (1536 spf)
Метод сжатия : С потерями
Размер потока : 112 Мбайт (7%)
Выравнивание : Разделение по промежуткам
Продолжительность промежутка : 33 мс. (1,00 видеокадр)
Время предзагрузки промежутка : 500 мс.

Скриншот c названием фильма

Скриншоты

-Трейлер
Яндекс.Метрика
Рейтинг@Mail.ru