[ Сегодня на трекере фрилич! Идет свободное скачивание без начисления Download ]

И пробил час / Good Day for It [Ник Стаглиано] (2011 / Триллер, криминал / BDRip-AVC от MediaClub | P)

 

Создавать темы 04-Янв-2014 07:56

Информация о фильме
Название: И пробил час
Оригинальное название: Good Day for It
Год выхода: 2011
Жанр: Триллер, криминал
Режиссер: Ник Стаглиано
В ролях: Роберт Патрик, Хэл Холбрук, Джаред Акоста, Кэти Бэйкер, Крис Барнс, Мика Бурем, Ричард Брэйк, Мэтт Даффин, Роберт Инглунд
О фильме:
После того как Люк Шейн выдает полиции лидера местной банды Тайруса, он вынужден оставить город и скитаться по штатам, чтобы его дочь Эмили избежала мести банды Тайруса. 15 лет спустя Эмили умоляет отца увидеться с ней. Люк соглашается на встречу в кафе на окраине города. Но отец и дочь оказываются в ловушке — судьба свела с братом Тайрусом Норлсоном и его командой убийц-головорезов. Напряженное противостояние достигло своего пика и для Люка пробил час принять решение — вновь оставить свою дочь или же храбро подняться навстречу кошмару, который войдет в двери кафе.

Страна: США / Expressway Productions
Продолжительность: 01:32:23
Перевод: Профессиональный многоголосый
Файл
Кодек: x264
Качество: BDRip-AVC
Видео: MPEG-4 AVC, 2900 Кбит/с, 1024x436, 23.976 кадр/с
Звук: Русский, английский (AC3, 6 ch, 448 Кбит/с)
Семпл

О релизе

• За исходник спасибо Remux (hdtracker.org).

MI

x264 [info]: frame I:952 Avg QP:16.46 size: 87148
x264 [info]: frame P:29421 Avg QP:19.28 size: 29586
x264 [info]: frame B:102539 Avg QP:21.42 size: 10266
Format : Matroska
Format version : Version 4 / Version 2
File size : 2.45 GiB
Duration : 1h 32mn
Overall bit rate : 3 792 Kbps
Movie name : -=MediaClub - Odessit=-
Encoded date : UTC 2014-01-03 07:02:23
Writing application : mkvmerge v6.1.0 ('Old Devil') built on Mar 4 2013 09:10:42
Writing library : libebml v1.3.0 + libmatroska v1.4.0
Video
ID : 1
Format : AVC
Format/Info : Advanced Video Codec
Format profile : [email protected]
Format settings, CABAC : Yes
Format settings, ReFrames : 11 frames
Codec ID : V_MPEG4/ISO/AVC
Duration : 1h 32mn
Bit rate : 2 900 Kbps
Width : 1 024 pixels
Height : 436 pixels
Display aspect ratio : 2.35:1
Frame rate : 23.976 fps
Color space : YUV
Chroma subsampling : 4:2:0
Bit depth : 8 bits
Scan type : Progressive
Bits/(Pixel*Frame) : 0.271
Stream size : 1.82 GiB (74%)
Writing library : x264 core 130 r2273 b3065e6
Encoding settings : cabac=1 / ref=11 / deblock=1:-3:-3 / analyse=0x3:0x133 / me=umh / subme=11 / psy=1 / psy_rd=1.00:0.20 / mixed_ref=1 / me_range=64 / chroma_me=1 / trellis=2 / 8x8dct=1 / cqm=0 / deadzone=21,11 / fast_pskip=0 / chroma_qp_offset=-3 / threads=6 / lookahead_threads=1 / sliced_threads=0 / nr=0 / decimate=0 / interlaced=0 / bluray_compat=0 / constrained_intra=0 / bframes=13 / b_pyramid=2 / b_adapt=2 / b_bias=0 / direct=3 / weightb=1 / open_gop=0 / weightp=2 / keyint=240 / keyint_min=23 / scenecut=40 / intra_refresh=0 / rc=2pass / mbtree=0 / bitrate=2900 / ratetol=1.0 / qcomp=0.60 / qpmin=0 / qpmax=69 / qpstep=4 / cplxblur=20.0 / qblur=0.5 / ip_ratio=1.40 / pb_ratio=1.30 / aq=1:1.00
Language : English
Audio #1
ID : 2
Format : AC-3
Format/Info : Audio Coding 3
Mode extension : CM (complete main)
Codec ID : A_AC3
Duration : 1h 32mn
Bit rate mode : Constant
Bit rate : 448 Kbps
Channel(s) : 6 channels
Channel positions : Front: L C R, Side: L R, LFE
Sampling rate : 48.0 KHz
Bit depth : 16 bits
Compression mode : Lossy
Stream size : 296 MiB (12%)
Title : Профессиональный многоголосый
Language : Russian
Audio #2
ID : 3
Format : AC-3
Format/Info : Audio Coding 3
Mode extension : CM (complete main)
Codec ID : A_AC3
Duration : 1h 32mn
Bit rate mode : Constant
Bit rate : 448 Kbps
Channel(s) : 6 channels
Channel positions : Front: L C R, Side: L R, LFE
Sampling rate : 48.0 KHz
Bit depth : 16 bits
Compression mode : Lossy
Stream size : 296 MiB (12%)
Language : English
Menu
00:00:00.000 : :Chapter 01
00:00:00.417 : :Chapter 02
00:00:55.472 : :Chapter 03
00:04:00.240 : :Chapter 04
00:08:00.480 : :Chapter 05
00:12:00.720 : :Chapter 06
00:16:00.960 : :Chapter 07
00:20:01.200 : :Chapter 08
00:24:01.440 : :Chapter 09
00:28:01.679 : :Chapter 10
00:32:01.920 : :Chapter 11
00:36:02.160 : :Chapter 12
00:40:02.400 : :Chapter 13
00:44:02.640 : :Chapter 14
00:48:02.880 : :Chapter 15
00:52:03.120 : :Chapter 16
00:56:03.360 : :Chapter 17
01:00:03.600 : :Chapter 18
01:04:03.840 : :Chapter 19
01:08:04.080 : :Chapter 20
01:12:04.320 : :Chapter 21
01:16:04.560 : :Chapter 22
01:20:04.800 : :Chapter 23
01:24:05.040 : :Chapter 24
01:28:05.280 : :Chapter 25
01:32:05.520 : :Chapter 26

Скриншоты

Яндекс.Метрика
Рейтинг@Mail.ru