[ Сегодня на трекере фрилич! Идет свободное скачивание без начисления Download ]

Кровный отец / Blood Father (Жан-Франсуа Рише / Jean-François Richet) [2016, WEB-DL, 1080p-LQ]

 

Создавать темы 28-Авг-2016 09:11

Кровный отец / Blood Father--- -Производство: Франция / Why Not Productions
Жанр: Боевик, Триллер
Режиссер: Жан-Франсуа Рише
Продюсер: Крис Бриггс, Паскаль Кочето, Питер Крэйг
Актеры:
Мэл Гибсон, Эрин Мориарти, Диего Луна, Майкл Паркс, Уильям Х. Мэйси, Мигель Сандовал, Дейл Дикки, Ричард Кебрал, Дэниэл Монкада, Райан Дорси
Описание:
Бывший заключенный, раньше не участвовавший в воспитании дочери, узнав о том, что его дочь преследуют наркоторговцы и жаждут ее смерти, решил помочь ей с проблемами.-
СЭМПЛ
Рейтинг MPAA: R (лицам до 17 лет обязательно присутствие взрослого)
Дата мировой премьеры: 21 мая 2016
Дата российской премьеры: Нет информации
Продолжительность: 01:27:16
Качество видео: WEB-DL pic
Перевод: Многоголосый закадровый, любительский (СПД)
Вид субтитров: Отсутствуют
Реклама: Присутствуют голосовые и текстовые вставки.
Видео: AVC, 1912x792 (2.40:1), 23.976 fps, 4 132 Kbps (0.114 bit/pixel)
Аудио: AC-3, 48.0 KHz, 2 ch, 384 Kbps, CBR

МИ

Общее
Уникальный идентификатор : 222479665646890862293509726992369242239 (0xA7600666F7B3F8B8AE8E7ECB56CCD07F)
Полное имя : D:\[1]\Кровный отец\Кровный отец - Blood Father (2016)_WEB-DL.1080p.mkv
Формат : Matroska
Версия формата : Version 4 / Version 2
Размер файла : 2,81 Гбайт
Продолжительность : 1 ч. 27 м.
Режим общего битрейта : Постоянный
Общий поток : 4608 Кбит/сек
Дата кодирования : UTC 2016-08-28 06:44:15
Программа кодирования : mkvmerge v7.6.0 ('Garden of Dreams') 64bit built on Feb 8 2015 13:04:34
Библиотека кодирования : libebml v1.3.1 + libmatroska v1.4.2
_STATISTICS_WRITING_APP : mkvmerge v7.6.0 ('Garden of Dreams') 64bit built on Feb 8 2015 13:04:34
_STATISTICS_WRITING_DATE_UTC : 2016-08-28 06:44:15
_STATISTICS_TAGS : BPS DURATION NUMBER_OF_FRAMES NUMBER_OF_BYTES
DURATION : 01:27:16.448000000
NUMBER_OF_FRAMES : 163639
NUMBER_OF_BYTES : 251349504
Видео
Идентификатор : 1
Формат : AVC
Формат/Информация : Advanced Video Codec
Профиль формата : [email protected]
Параметр CABAC формата : Да
Параметр ReFrames формата : 5 кадров
Идентификатор кодека : V_MPEG4/ISO/AVC
Продолжительность : 1 ч. 27 м.
Вид битрейта : Постоянный
Битрейт : 4132 Кбит/сек
Номинальный битрейт : 4600 Кбит/сек
Ширина : 1912 пикселей
Высота : 792 пикселя
Соотношение сторон : 2,40:1
Режим частоты кадров : Постоянный
Частота кадров : 23,976 кадра/сек
Стандарт вещания : Component
Цветовое пространство : YUV
Субдискретизация насыщенности : 4:2:0
Битовая глубина : 8 бит
Тип развёртки : Прогрессивная
Бит/(Пиксели*Кадры) : 0.114
Размер потока : 2,52 Гбайт (90%)
Язык : English
Default : Да
Forced : Нет
Цветовой диапазон : Limited
Основные цвета : BT.709
Характеристики трансфера : BT.709
Коэффициенты матрицы : BT.709
Аудио
Идентификатор : 2
Формат : AC-3
Формат/Информация : Audio Coding 3
Расширение режима : CM (complete main)
Параметр Endianness формата : Big
Идентификатор кодека : A_AC3
Продолжительность : 1 ч. 27 м.
Вид битрейта : Постоянный
Битрейт : 384 Кбит/сек
Каналы : 2 канала
Расположение каналов : Front: L R
Частота : 48,0 КГц
Битовая глубина : 16 бит
Метод сжатия : С потерями
Задержка видео : 6 мс.
Размер потока : 240 Мбайт (8%)
Язык : Russian
Default : Да
Forced : Нет

Cкриншоты

Яндекс.Метрика
Рейтинг@Mail.ru