[ Сегодня на трекере фрилич! Идет свободное скачивание без начисления Download ]

Сезонники / Temps (Райан Сэйдж / Ryan Sage) [2016 г., мелодрама, комедия, WEB-DLRip-AVC] MVO [RecentFilms]

 

Создавать темы 26-Авг-2016 04:46

-Сезонники / Temps-- Производство: США, Grandex Productions, RKM 29
Год выпуска: 2016 г.
Жанр: мелодрама, комедия
Продолжительность: 01:25:54Мировая премьера: 8 апреля 2016
Перевод: Любительский (многоголосый, закадровый) [RecentFilms]
Режиссер: Райан Сэйдж / Ryan Sage-В ролях: Грант Розенмейер, Линдси Шоу, Рейд Юинг, Иден Шер, Кристофер Бауэр, Алекса Гьюффре, Дэвид Карзелл, Коринн Чуи, Селия Финкельштейн-Описание: Сюжет основан на истории тихого приятного молодого человека, работающего помощником в офисе, не стремящегося к карьерному росту и высокому заработку, благодаря чему у него складываются хорошие взаимоотношения с окружающими. Знакомство с новой сотрудницей изменяет его отношение к себе и коллегам: амбициозная, серьезно настроенная Стефани, энергично пробивающаяся по служебной лестнице, сводит парня с ума, заставляя пересмотреть приоритеты и заняться собственным развитием.-
Качество видео: WEB-DLRip-AVC
Контейнер: MKV
Видео кодек: MPEG4 AVC
Аудио кодек: AC3
Видео: 1930 Кбит/с, 1024x434, 23,976 кадра/сек
Аудио: AC3, 2 ch, 192 Кбит/с, 48,0 КГц
Cубтитры: отсутствуют

Media Info

Общее
Уникальный идентификатор : 202825049783659034537626823747334241083 (0x9896AF05FB3969D98B1871B189A6FB3B)
Полное имя : J:\Сезонники\Sezonniki.2016.WEB-DLRip-AVC.[pirat.ca].mkv
Формат : Matroska
Версия формата : Version 2
Размер файла : 1,26 Гбайт
Продолжительность : 1 ч. 25 м.
Общий поток : 2117 Кбит/сек
Дата кодирования : UTC 2016-08-24 11:02:39 / UTC 2016-04-14 18:44:30
Программа кодирования : mkvmerge v5.3.0 ('I could have danced') built on Feb 9 2012 10:38:07
Библиотека кодирования : libebml v1.2.3 + libmatroska v1.3.0 / Lavf56.22.100Видео
Идентификатор : 1
Формат : AVC
Формат/Информация : Advanced Video Codec
Профиль формата : [email protected]/* */
Параметр CABAC формата : Да
Параметр ReFrames формата : 10 кадров
Идентификатор кодека : V_MPEG4/ISO/AVC
Продолжительность : 1 ч. 25 м.
Битрейт : 1930 Кбит/сек
Ширина : 1024 пикселя
Высота : 434 пикселя
Соотношение сторон : 2,35:1
Режим частоты кадров : Постоянный
Частота кадров : 23,976 кадра/сек
Стандарт вещания : Component
Цветовое пространство : YUV
Субдискретизация насыщенности : 4:2:0
Битовая глубина : 8 бит
Тип развёртки : Прогрессивная
Бит/(Пиксели*Кадры) : 0.181
Размер потока : 1,12 Гбайт (89%)
Библиотека кодирования : x264 core 144 r2525
Default : Да
Forced : Нет
Цветовой диапазон : Limited
Statistics Tags Issue : mkvmerge v8.3.0 ('Over the Horizon') 64bit 2016-04-16 16:35:08 / mkvmerge v5.3.0 ('I could have danced') built on Feb 9 2012 10:38:07 2016-08-24 11:02:39 / UTC 2016-04-14 18:44:30
FromStats_BitRate : 1923511
FromStats_Duration : 01:25:30.381000000
FromStats_FrameCount : 123005
FromStats_StreamSize : 1233543459Аудио
Идентификатор : 2
Формат : AC-3
Формат/Информация : Audio Coding 3
Расширение режима : CM (complete main)
Параметр Endianness формата : Big
Идентификатор кодека : A_AC3
Продолжительность : 1 ч. 25 м.
Вид битрейта : Постоянный
Битрейт : 192 Кбит/сек
Каналы : 2 канала
Расположение каналов : Front: L R
Частота : 48,0 КГц
Частота кадров : 31,250 кадров/сек (1536 spf)
Метод сжатия : С потерями
Задержка видео : -125 мс.
Размер потока : 117 Мбайт (9%)
Язык : Russian
Default : Да
Forced : Нет
Statistics Tags Issue : mkvmerge v8.3.0 ('Over the Horizon') 64bit 2016-04-16 16:35:08 / mkvmerge v5.3.0 ('I could have danced') built on Feb 9 2012 10:38:07 2016-08-24 11:02:39 / UTC 2016-04-14 18:44:30
FromStats_BitRate : 192000
FromStats_Duration : 01:25:30.272000000
FromStats_FrameCount : 160321
FromStats_StreamSize : 123126528

Скриншот c названием фильма

Скриншоты

-Трейлер
Яндекс.Метрика
Рейтинг@Mail.ru