[ Сегодня на трекере фрилич! Идет свободное скачивание без начисления Download ]

Исчезающие волны / Aurora (Кристина Буозите / Kristina Buozyte) [2012 г., фантастика, триллер, мелодрама, эротика, BDRip-AVC, 720p] DVO [Точка Zрения] + Sub (Rus)

 

Создавать темы 26-Авг-2016 04:37

-Исчезающие волны / Aurora-- Производство: Литва, Франция, Бельгия, Acajou Films, Eurimages, Les Films 2 Cinema, Lietuvos Respublikos kulturos ministerija, Programme MEDIA de la Communauté Européenne, Tremora, ...
Год выпуска: 2012 г.
Жанр: фантастика, триллер, мелодрама, ЭРОТИКА (18+)
Продолжительность: 01:59:59Мировая премьера: 29 июня 2012
Перевод: Любительский (двухголосый, закадровый) [Точка Zрения]
Режиссер: Кристина Буозите / Kristina Buozyte-В ролях: Юрга Ютайте, Марюс Ямпольскис, Брайс Форнье, Шарунас Бартас, Фредерик Андрау, Рудольфас Янсонас, Дарюс Мяшкаускас, Филип Ленковски, Брайс Форнье-Описание: Мечтали ли Вы когда-нибудь оказаться в сознании другого человека? Вы когда-нибудь хотели испытать идеальные отношения, когда два сознания сливаются в единое целое? В ходе научного эксперимента по трансферу нейронов молодой ученый отправляется в сознание неизвестной женщины, лежащей в коме. Он называет ее Аврора. В глубинах чужого сознания Лукас обнаруживает прекрасную вселенную. В этой новой реальности два сознания испытывают взаимное притяжение. Научный эксперимент выходит из-под контроля: однажды побывав в сознании Авроры, Лукас хочет возвращаться к ней снова и снова.-
Качество видео: BDRip-AVC
Контейнер: MKV
Стандарт разрешения: 720p
Видео кодек: MPEG4 AVC
Аудио кодек: AC3
Видео: 4848 kb/s, 1280x544, 23,976 (24000/1001) fps
Аудио: AC3, 448 kb/s, 6 ch, 48,0 kHz
Cубтитры: русские
Формат субтитров: softsub (SRT)
Доп. информация о субтитрах: включаемые

Награды

Карловы Вары, 2012 год
Победитель (1):
Приз программы «К Востоку от Запада» - особое упоминание

Рецензия

для тех, кто в теме, и не только для нихНе есть хорошо затевать полемику с авторами других рецензий, но поскольку в данном случае ранее была только одна рецуха (иначе не назовешь), прямо раздирает меня уколоть ее автора, некую Кошку_ку, которая по-моему нифига не поняла и вообще не в теме. Надо было хотя бы фильм «Клетка» посмотреть для понимания, вот его сам Кинопоиск выдает в похожих фильмах. Но мне думается, Кошка_ку и «Клетку» не видела, а если видела, то также не поняла и не ценит.А ведь «Клетка» в сравнении с данной картиной, пожалуй, является просто гламурненькой сказочкой…«Исчезающие волны» я назову действительно неожиданным мощным сюрпризом от литовских кинематографистов. Да, сюжет банальный, но в таких картинах это совсем не главное. А вот подача, скажу без интеллигентских выкрутасов, реально офигенная, местами просто выносит мозг, особенно вместе с музыкой. Визуально и музыкально картина близка к безупречности. К внешности главного героя не стоит придираться, по-моему родинка на шее делает его лишь более необычным. То, что научная подоплека не раскрыта, ничуть не минус: это не фантастика как таковая, а фантастическая мелодрама. Детали эксперимента не важны, главное чувства и подтексты. Никаких излишних акцентов на эротизме я лично здесь не увидел, это наверное у Кошки_ку вылезает ее личная озабоченность. Единственное, в чем могу согласиться, что данный фильм содержит ряд скрытых цитат и отсылок к другим знаковым фильмам в схожей стилистике и тематике, но я считаю, что это ничуть не портит данную картину, скорее напротив.Итак, это весьма атмосферный, гружёный, драматичный фильм, сделанный красиво и вместе с тем сдержанно, без излишеств, в современном европейском тренде. Не столько sci-fi, сколько про любовь, хотя она показана сквозь призму «эстетики подсознательного».

Media Info

Общее
Уникальный идентификатор : 222413273718949414427184426244165701535 (0xA7533D07068CC9CAA321D7E0224D8F9F)
Полное имя : J:\Исчезающие волны\Vanishing Waves.2012.BDRip-AVC.720p.[pirat.ca].mkv
Формат : Matroska
Версия формата : Version 2
Размер файла : 4,55 Гбайт
Продолжительность : 1 ч. 59 м.
Общий поток : 5433 Кбит/сек
Дата кодирования : UTC 2016-08-24 12:17:49
Программа кодирования : mkvmerge v5.3.0 ('I could have danced') built on Feb 9 2012 10:38:07
Библиотека кодирования : libebml v1.2.3 + libmatroska v1.3.0Видео
Идентификатор : 1
Формат : AVC
Формат/Информация : Advanced Video Codec
Профиль формата : [email protected]/* */
Параметр CABAC формата : Да
Параметр ReFrames формата : 12 кадров
Идентификатор кодека : V_MPEG4/ISO/AVC
Продолжительность : 1 ч. 59 м.
Битрейт : 4877 Кбит/сек
Ширина : 1280 пикселей
Высота : 544 пикселя
Соотношение сторон : 2,35:1
Режим частоты кадров : Постоянный
Частота кадров : 23,976 (24000/1001) кадра/сек
Цветовое пространство : YUV
Субдискретизация насыщенности : 4:2:0
Битовая глубина : 8 бит
Тип развёртки : Прогрессивная
Бит/(Пиксели*Кадры) : 0.292
Размер потока : 4,09 Гбайт (90%)
Язык : English
Default : Да
Forced : НетАудио
Идентификатор : 2
Формат : AC-3
Формат/Информация : Audio Coding 3
Расширение режима : CM (complete main)
Параметр Endianness формата : Big
Идентификатор кодека : A_AC3
Продолжительность : 1 ч. 59 м.
Вид битрейта : Постоянный
Битрейт : 448 Кбит/сек
Каналы : 6 каналов
Расположение каналов : Front: L C R, Side: L R, LFE
Частота : 48,0 КГц
Частота кадров : 31,250 кадров/сек (1536 spf)
Метод сжатия : С потерями
Размер потока : 384 Мбайт (8%)
Заголовок : Точка Zрения
Язык : Russian
Default : Да
Forced : ДаТекст
Идентификатор : 3
Формат : UTF-8
Идентификатор кодека : S_TEXT/UTF8
Идентификатор кодека/Информация : UTF-8 Plain Text
Язык : Russian
Default : Нет
Forced : НетМеню
00:00:00.000 : en:00:00:00.000
00:08:02.941 : en:00:08:02.941
00:20:55.045 : en:00:20:55.045
00:31:20.003 : en:00:31:20.003
00:40:44.025 : en:00:40:44.025
00:51:22.955 : en:00:51:22.955
00:58:44.938 : en:00:58:44.938
01:08:58.968 : en:01:08:58.968
01:19:31.892 : en:01:19:31.892
01:30:13.950 : en:01:30:13.950
01:37:49.906 : en:01:37:49.906
01:47:28.901 : en:01:47:28.901

Скриншот c названием фильма

Скриншоты

-Трейлер
Яндекс.Метрика
Рейтинг@Mail.ru