Звёздный десант (ТВ) / Star Command (Джим Джонстон / Jim Johnston) [1996 г., фантастика, боевик, приключения, DVDRip] MVO ["Селена Интернешнл"]

 

Создавать темы 26-Авг-2016 04:28

-Звёздный десант (ТВ) / Star Command-- Производство: США, Германия, High Command Productions, Paramount Television, UFA Babelsberg GmbH, Wilshire Court Productions, ...
Год выпуска: 1996 г.
Жанр: фантастика, боевик, приключения
Продолжительность: 01:32:17Мировая премьера: 11 марта 1996
Перевод: Профессиональный (многоголосый, закадровый) ["Селена Интернешнл"]
Режиссер: Джим Джонстон / Jim Johnston-В ролях: Джей Андервуд, Дженнифер Брэнсфорд, Крис Конрад, Темби Лок, Келли Ху, Иван Сергей, Ева Хаберманн, Морган Фэйрчайлд, Чад Эверетт, Ганс Мартин Штир ...-Описание: Команда кадетов-выпускников космической академии отправляется в свой первый настоящий полёт, и сразу же сталкивается с настоящей угрозой. После вражеской атаки все высшие офицерские чины на корабле погибают, и новичкам приходится принять командование на себя.-
Качество видео: DVDRip
Контейнер: AVI
Видео кодек: XviD
Аудио кодек: AC3
Видео: 688x528 (1.30:1), 25 fps, XviD build 67 ~2069 kbps avg, 0.23 bit/pixel
Аудио: 48 kHz, AC3 Dolby Digital, 2/0 (L,R) ch, ~192 kbps
Cубтитры: отсутствуют

Рецензия

К звёздам! И будь что будет!!Чтобы понять, почему ТВ-фильм Джима Джонстона способен удержать зрителя у экранов телевизоров, достаточно назвать всего три сериала, в которых он выступал режиссёром: «Вавилон 5» (1994-1998), «Параллельные миры» (1995-2000) и «Робинзоны космоса» (1996), вслед за которым Джонстон снял ленту «Звёздный десант». Снял он его в 1996 году, а знаменитый одноимённый блокбастер Пола Верховена появится лишь годом позже, поэтому работа Джима Джонстона в какой-то мере оказалась в тени своего более успешного «однофамильца». Сравнивать их не стоит, потому что общего у них, кроме названия, ничего нет.Да и название «Звёздный десант / Star Command», на мой взгляд не совсем отражает суть фильма, потому что лента рассказывает, прежде всего, о «зачётном» полёте шести выпускников Космической академии. Полёт совершенно рядовой, и должен был пройти спокойно-рутинно, если бы в это самое время, отколовшаяся от земного человечества и основавшая собственную колонию конфедерация Синасура не «положила взгляд» на недавно открытую планету Мераз. Пока политики пытались в процессе переговоров определить статус планеты, а также в чьей зоне ответственности она будет находиться, власти Синасура тайно отправили к Меразу эскадру из 5-ти кораблей, цель которой — уничтожить всех обитателей, после чего заявить на якобы необитаемую планету собственные права.Наверное, всё бы так и случилось, потому что 5 кораблей несли полторы тысячи десанта, но корвет с курсантами и двумя старшими офицерами на борту оказался в нужном месте в ненужное время. Воспользовавшись фактором внезапности противник атаковал корвет, и если бы не случайно подвернувшийся «ледяной мир», кадетам пришлось бы туго… Это завязка — весьма динамичная, как и весь фильм. «Спокойных» сцен немного. Почти все они в начале фильма, когда зрителю объясняют в чём же заключается причина конфликта ДРЗ (Демократической Республики Земли) и конфедерации Синасура.Спецэффектов и компьютерной графики, что называется «выше крыши». Собственно весь фильм — это и есть компьютерная графика. Правда, чуточку примитивная для 1996 года. Отностися это и к многочисленным макетам станций и кораблей — выглядят они скорее кукольными. Прорисовка, как и сама концепция форм техники и сооружений оставляет желать лучшего. Впрочем, в фильме столько событий, что на такие «мелочи» почти не обращаешь внимания. В итоге имеем интересный ТВ-фильм с неплохой идеей, хорошей актёрской игрой и отличными костюмами, в которых щеголяют сотрудники Космофлота Демократической Республики Земли.

Media Info

Общее
Полное имя : J:\Всё в порядке\Vsjo v porjadke.2015.DVDRip.[pirat.ca].avi
Формат : AVI
Формат/Информация : Audio Video Interleave
Размер файла : 1,98 Гбайт
Продолжительность : 1 ч. 59 м.
Общий поток : 2371 Кбит/сек
Название фильма : Vsjo v porjadke.2015.DVDRip.[pirat.ca]
Программа кодирования : VirtualDubMod 1.5.10.3 (build 2550/release)Видео
Идентификатор : 0
Формат : MPEG-4 Visual
Профиль формата : Advanced [email protected]/* */
Параметр BVOP формата : 2
Параметр QPel формата : Нет
Параметр GMC формата : Без точки перехода
Параметр матрицы формата : Default (H.263)
Идентификатор кодека : XVID
Идентификатор кодека/Подсказка : XviD
Продолжительность : 1 ч. 59 м.
Битрейт : 2169 Кбит/сек
Ширина : 720 пикселей
Высота : 304 пикселя
Соотношение сторон : 2,35:1
Частота кадров : 25,000 кадров/сек
Цветовое пространство : YUV
Субдискретизация насыщенности : 4:2:0
Битовая глубина : 8 бит
Тип развёртки : Прогрессивная
Метод сжатия : С потерями
Бит/(Пиксели*Кадры) : 0.396
Размер потока : 1,81 Гбайт (91%)
Библиотека кодирования : XviD 1.2.1 (UTC 2008-12-04)Аудио
Идентификатор : 1
Формат : AC-3
Формат/Информация : Audio Coding 3
Расширение режима : CM (complete main)
Параметр Endianness формата : Big
Идентификатор кодека : 2000
Продолжительность : 1 ч. 59 м.
Вид битрейта : Постоянный
Битрейт : 192 Кбит/сек
Каналы : 2 канала
Расположение каналов : Front: L R
Частота : 48,0 КГц
Частота кадров : 31,250 кадров/сек (1536 spf)
Метод сжатия : С потерями
Размер потока : 164 Мбайт (8%)
Выравнивание : Разделение по промежуткам
Продолжительность промежутка : 40 мс. (1,00 видеокадр)
Время предзагрузки промежутка : 500 мс.

Скриншот c названием фильма

Скриншоты

-Трейлер
Яндекс.Метрика
Рейтинг@Mail.ru