[ Сегодня на трекере фрилич! Идет свободное скачивание без начисления Download ]

Ганхед: Война роботов / Ganheddo (Масато Харада / Masato Harada, Алан Смити / Alan Smithee) [1989 г., фантастика, боевик, DVDRip] VO

 

Создавать темы 26-Авг-2016 04:26

-Ганхед: Война роботов / Ganheddo-- Производство: Япония, Bandai Entertainment Inc., Graphical Corporation Crowd Inc., Imagica Corp., Kadokawa Shoten Publishing Co. Ltd., ...
Год выпуска: 1989 г.
Жанр: фантастика, боевик
Продолжительность: 01:40:55Мировая премьера: 22 июля 1989
Перевод: Любительский (одноголосый, закадровый)
Режиссер: Масато Харада / Masato Harada, Алан Смити / Alan Smithee-В ролях: Масахиро Такашима, Бренда Бакки, Джеймс Брюстер Томпсон, Aya Enjôji, Каори Мизушима, Ёсуке Саито, Долл Нгуйен, Jay Kabira, Рэнди Рейс, Мики Кертис-Описание: В 2038 году группа мусорщиков входит в комплекс Kyron-5 в поисках драгоценного вещества Texmexium. Все они погибают, кроме механика Бруклина. Он встречает странствующего Texas Ari Ranger и двух детей. Чтобы спасти себя и человечество от гнева Kyron-5, они должны его уничтожить. Бруклин находит GUNHED (Gun UNit Heavy Elimination Device), боевого робота, и восстанавливает его. Тем временем Babe трансформируется в био-дройда и ищет сержанта Nim и Texmexium, который она украла. Чтобы спасти её и уничтожить Kyron-5, Бруклин должен справиться со своей боязнью кокпитов и пилотировать GUNHED до вершины башни. По пути он сталкивается с защитными системами комплекса.-
Качество видео: DVDRip
Контейнер: AVI
Видео кодек: XviD
Аудио кодек: AC3
Видео: 704x400 (1.76:1), 23.976 fps, XviD build 47 ~1859 kbps avg, 0.28 bit/pixel
Аудио: 48 kHz, AC3 Dolby Digital, 2/0 (L,R) ch, ~192 kbps
Cубтитры: отсутствуют

Доп. информация

По мотивам фильма была разработана одноимённая игра для приставки PC Engine, также выходившая в США под названием «Blazing Lazers» и не имевшая отсылок к фильму.

Рецензия

Фильм может заинтересовать только ценителей старой фантастики и поклонников панк-стиля. Но им я очень советую посмотреть его и составить собственное мнение. В активе у этого фильма отличные декорации, атмосфера и интересные персонажи. Есть в нем искорка внутренней жизни.Мне более или менее знакома японская фантастика, ценители знают, что недолгое время японцы даже были законодателями моды, но очень быстро уступили лидерство. В дальнейшем же, визитной карточкой японской фантастики были резиновые костюмы и картонные декорации. Можно назвать это «олд-скул» или «примитивность», суть не измениться, только тот, кто влюблен в этот стиль, может получить от него удовольствие. «Gunhed» заметно выделяется.Персонажи и актерская игра больше напоминают старое гонконгское кино. Некоторые штрихи, которыми рисуют характеры персонажей, очень часто встречались мне именно в гонконгских фильмах. Присутствуют и пара актеров-европейцев, что тоже не очень типично. Поначалу фильм отдает даже легким сюрреализмом и напоминает дорогую стилизацию под олд-скул и фантастику 60-х. А декорации временами поражают. Меня они удивили настолько, что я полез искать бюджет фильма. Википедия сообщает сумму $10 500 000. Если это верно, достаточно неплохо для 1989 года. Соундтрек тоже своеобразен, в нужных местах, темы на барабанах очень здорово подчеркивают видеоряд.Главное. Со спецэффектами в «Gunhed» складывается очень и очень странная картина. Частью они примитивны, на уровне 50-60-х годов, частью — поразительно здорово сделаны. Лучшие эпизоды не уступают кукольному Лос-Анджелесу в «Терминаторе» или кадрам с ED-209 в «Робокопе». «Gunhed» это настоящая симфония использования макетов и покадровой (цейтраферной) съемки.Конечно, есть недостатки и много. Главный, что к последней трети фильм превращается в самый обыденный фантастический боевик, а это не идет ему на пользу. Думаю, далеко не всем ценителям он понравится. И все же, советую его посмотреть. Когда вся приличная старая фантастика давно пересмотрена и остается только бесконечно фильтровать би-муви, радостные находки встречаются очень редко. Возможно, «Gunhed» станет для вас такой же находкой, как для меня.Удачи!

Media Info

Общее
Полное имя : D:\D\Боевая башня\Boevaya Basnya.1989.DVDRip.[pirat.ca].avi
Формат : AVI
Формат/Информация : Audio Video Interleave
Размер файла : 1,45 Гбайт
Продолжительность : 1 ч. 40 м.
Общий поток : 2061 Кбит/сек
Название фильма : Boevaya Basnya.1989.DVDRip.[pirat.ca]
Программа кодирования : VirtualDubMod 1.5.10.2 (build 2540/release)Видео
Идентификатор : 0
Формат : MPEG-4 Visual
Профиль формата : Advanced [email protected]/* */
Параметр BVOP формата : 1
Параметр QPel формата : Нет
Параметр GMC формата : Без точки перехода
Параметр матрицы формата : Default (MPEG)
Идентификатор кодека : XVID
Идентификатор кодека/Подсказка : XviD
Продолжительность : 1 ч. 40 м.
Битрейт : 1860 Кбит/сек
Ширина : 704 пикселя
Высота : 400 пикселей
Соотношение сторон : 16:9
Частота кадров : 23,976 (23976/1000) кадра/сек
Цветовое пространство : YUV
Субдискретизация насыщенности : 4:2:0
Битовая глубина : 8 бит
Тип развёртки : Прогрессивная
Метод сжатия : С потерями
Бит/(Пиксели*Кадры) : 0.275
Размер потока : 1,31 Гбайт (90%)
Библиотека кодирования : XviD 1.2.0.dev47 (UTC 2006-11-01)Аудио
Идентификатор : 1
Формат : AC-3
Формат/Информация : Audio Coding 3
Расширение режима : CM (complete main)
Параметр Endianness формата : Big
Идентификатор кодека : 2000
Продолжительность : 1 ч. 40 м.
Вид битрейта : Постоянный
Битрейт : 192 Кбит/сек
Каналы : 2 канала
Расположение каналов : Front: L R
Частота : 48,0 КГц
Частота кадров : 31,250 кадров/сек (1536 spf)
Метод сжатия : С потерями
Размер потока : 139 Мбайт (9%)
Выравнивание : Разделение по промежуткам
Продолжительность промежутка : 42 мс. (1,00 видеокадр)
Время предзагрузки промежутка : 500 мс.

Скриншот c названием фильма

Скриншоты

-Трейлер
Яндекс.Метрика
Рейтинг@Mail.ru