Любовь и секс на Ибице / Verliefd op Ibiza (2013,мелодрама, комедия) HDRip-AVC | P

 

Создавать темы 04-Янв-2014 01:08

Информация о фильме
Название: Любовь и секс на Ибице
Оригинальное название: Verliefd op Ibiza
Год выхода: 2013
Жанр: мелодрама, комедия
Режиссер: Йохан Нийенхейс
В ролях: Виллеке ван Аммельрой, Йим Баккум, Рик Энгелкес, Ким Феенстра, Джаспер Готтлиб, Мариус Готтлиб, Кимберли Клавер, Симоне Клейнсма, Ян Коейман, Дэвид Люсиер

О фильме: Футболист Кевин только что заключил выгодный контракт с мадридским Реалом. Он вряд ли понимает, что делать со свалившимся на него богатством, но его подруга Эльза знает, как Кевин должен тратить свои миллионы... Две 40-летних подруги Джеки и Ирма хотя и проводят отпуск вместе, но имеют разные представления об идеальном отдыхе: Джеки предпочитает тусоваться с молодыми горячими парнями, тогда как Ирме милее спокойный отдых на пляже с книгой... Братья Дилан и Бойд мечтают стать DJ-звездами мирового класса... Пути всех этих героев пересекаются на острове Ибица.

Выпущено: Нидерланды / Farmhouse Film & TV, Johan Nijenhuis & Co, Televisie Radio Omroep Stichting (TROS)
Продолжительность: 01:56:42
Перевод: Профессиональный (многоголосный)
Файл
Формат: MKV
Качество: HDRip-AVC [Рип с BDRip 1080p]
Видео: 2061 kb/s, 1024x552
Аудио: Russian: / Dutch: AC3, 224 kb/s (2 ch)

MI

Format : Matroska
Format version : Version 4 / Version 2
File size : 2.05 GiB
Duration : 1h 56mn
Overall bit rate : 2 509 Kbps
Encoded date : UTC 2014-01-02 09:00:59
Writing application : mkvmerge v6.1.0 ('Old Devil') built on Mar 4 2013 09:10:42
Writing library : libebml v1.3.0 + libmatroska v1.4.0
Video
ID : 1
Format : AVC
Format/Info : Advanced Video Codec
Format profile : [email protected]
Format settings, CABAC : Yes
Format settings, ReFrames : 9 frames
Codec ID : V_MPEG4/ISO/AVC
Duration : 1h 56mn
Bit rate : 2 061 Kbps
Width : 1 024 pixels
Height : 552 pixels
Display aspect ratio : 1.85:1
Frame rate : 24.000 fps
Color space : YUV
Chroma subsampling : 4:2:0
Bit depth : 8 bits
Scan type : Progressive
Bits/(Pixel*Frame) : 0.152
Stream size : 1.64 GiB (80%)
Writing library : x264 core 130 r2273 b3065e6
Encoding settings : cabac=1 / ref=9 / deblock=1:-3:-3 / analyse=0x3:0x133 / me=umh / subme=11 / psy=1 / psy_rd=1.00:0.20 / mixed_ref=1 / me_range=32 / chroma_me=1 / trellis=2 / 8x8dct=1 / cqm=0 / deadzone=21,11 / fast_pskip=0 / chroma_qp_offset=-3 / threads=12 / lookahead_threads=2 / sliced_threads=0 / nr=0 / decimate=0 / interlaced=0 / bluray_compat=0 / constrained_intra=0 / bframes=8 / b_pyramid=2 / b_adapt=2 / b_bias=0 / direct=3 / weightb=1 / open_gop=0 / weightp=2 / keyint=250 / keyint_min=23 / scenecut=40 / intra_refresh=0 / rc_lookahead=60 / rc=2pass / mbtree=1 / bitrate=2061 / ratetol=1.0 / qcomp=0.60 / qpmin=0 / qpmax=69 / qpstep=4 / cplxblur=20.0 / qblur=0.5 / ip_ratio=1.40 / aq=1:1.00
Language : Dutch
Default : Yes
Forced : No
Audio #1
ID : 2
Format : AC-3
Format/Info : Audio Coding 3
Mode extension : CM (complete main)
Format settings, Endianness : Big
Codec ID : A_AC3
Duration : 1h 56mn
Bit rate mode : Constant
Bit rate : 224 Kbps
Channel(s) : 2 channels
Channel positions : Front: L R
Sampling rate : 48.0 KHz
Bit depth : 16 bits
Compression mode : Lossy
Stream size : 187 MiB (9%)
Language : Russian
Default : Yes
Forced : No
Audio #2
ID : 3
Format : AC-3
Format/Info : Audio Coding 3
Mode extension : CM (complete main)
Format settings, Endianness : Big
Codec ID : A_AC3
Duration : 1h 56mn
Bit rate mode : Constant
Bit rate : 224 Kbps
Channel(s) : 2 channels
Channel positions : Front: L R
Sampling rate : 48.0 KHz
Bit depth : 16 bits
Compression mode : Lossy
Stream size : 187 MiB (9%)
Language : Dutch
Default : No
Forced : No
Menu
00:00:00.000 : en:00:00:00.000
00:09:54.500 : en:00:09:54.500
00:19:52.083 : en:00:19:52.083
00:27:44.458 : en:00:27:44.458
00:41:05.708 : en:00:41:05.708
00:47:16.417 : en:00:47:16.417
00:57:10.875 : en:00:57:10.875
01:05:25.417 : en:01:05:25.417
01:14:36.458 : en:01:14:36.458
01:23:51.292 : en:01:23:51.292
01:33:20.750 : en:01:33:20.750
01:45:39.208 : en:01:45:39.208

Скриншоты

Яндекс.Метрика
Рейтинг@Mail.ru