Маска / The Mask (1994) BDRip [H.265/1080p-LQ]

 

Создавать темы 25-Авг-2016 10:23

- Маска / The Mask (1994) BDRip - Производство: США / Dark Horse Entertainment, New Line Cinema
Жанр: Комедия, Криминал, Мелодрама, Фэнтези
Режиссер: Чарлз Расселл
Актеры: Джим Керри, Питер Ригерт, Питер Грин, Эми Ясбек, Кэмерон Диаз, Орестес Матасена, Тим Бэгли, Нэнси Фиш, Джонни Уильямс, Рег Э. Кэти
Описание:
Скромный, застенчивый служащий банка закомплексован настолько, что чувствует себя неуверенно с красивыми девушками. Волею судьбы к нему попадает волшебная маска, и Стенли Ипкис приобретает способность превращаться в неуязвимое мультяшное существо из забавных комиксов. Он становится супергероем, готовым бороться с преступностью, как Бэтмен. Итак, днем он по-прежнему скромный и незадачливый служащий, а по ночам - супермен...
Рейтинг MPAA: PG (рекомендуется присутствие родителей)
Релиз от: Libero
Продолжительность: 01:41:12
Качество видео: BDRip-LQ [thumb]http://sendfile.su/1259535[/thumb]
Перевод: Многоголосый закадровый
Видео: HEVC/H.265, 1920x1080, ~5901 Kbps
Аудио: AC3, 6 ch, 448 Kbps, CBR

Mediainfo:

Общее
Уникальный идентификатор                 : 242355792088044819253829222492156750082 (0xB6540718839B21B4B9627385A8786902)
Полное имя                               : E:\Video\Маска (The Mask).mkv
Формат                                   : Matroska
Версия формата                           : Version 4 / Version 2
Размер файла                             : 4,49 Гбайт
Продолжительность                        : 1 ч. 41 м.
Общий поток                              : 6351 Кбит/сек
Название фильма                          : Маска / The Mask
Дата кодирования                         : UTC 2016-08-23 10:21:48
Программа кодирования                    : mkvmerge v9.0.1 ('Obstacles') 64bit
Библиотека кодирования                   : libebml v1.3.3 + libmatroska v1.4.4
Attachments                              : aec555a58165a189aebcff7e81918410.jpg
Видео
Идентификатор                            : 1
Формат                                   : HEVC
Формат/Информация                        : High Efficiency Video Coding
Профиль формата                          : [email protected]@Main
Идентификатор кодека                     : V_MPEGH/ISO/HEVC
Продолжительность                        : 1 ч. 41 м.
Битрейт                                  : 5901 Кбит/сек
Ширина                                   : 1920 пикселей
Высота                                   : 1080 пикселей
Соотношение сторон                       : 16:9
Режим частоты кадров                     : Постоянный
Частота кадров                           : 23,976 (24000/1001) кадра/сек
Цветовое пространство                    : YUV
Субдискретизация насыщенности            : 4:2:0
Битовая глубина                          : 8 бит
Бит/(Пиксели*Кадры)                      : 0.119
Размер потока                            : 4,17 Гбайт (93%)
Библиотека кодирования                   : x265 1.9:[Windows][GCC 5.2.0][64 bit] 8bit
Настройки программы                      : wpp / ctu=64 / min-cu-size=8 / max-tu-size=32 / tu-intra-depth=3 / tu-inter-depth=3 / me=2 / subme=4 / merange=57 / no-rect / no-amp / max-merge=3 / temporal-mvp / no-early-skip / rdpenalty=0 / no-tskip / no-tskip-fast / strong-intra-smoothing / no-lossless / no-cu-lossless / no-constrained-intra / fast-intra / open-gop / no-temporal-layers / interlace=0 / keyint=250 / min-keyint=23 / scenecut=40 / rc-lookahead=40 / lookahead-slices=0 / bframes=8 / bframe-bias=0 / b-adapt=2 / ref=4 / limit-refs=3 / limit-modes / weightp / weightb / aq-mode=3 / qg-size=32 / aq-strength=2.00 / cbqpoffs=0 / crqpoffs=0 / rd=4 / psy-rd=1.00 / rdoq-level=0 / psy-rdoq=0.00 / signhide / deblock=-1:-1 / sao / no-sao-non-deblock / b-pyramid / no-cutree / no-intra-refresh / rc=crf / crf=22.9 / qcomp=0.60 / qpmin=0 / qpmax=51 / qpstep=4 / vbv-maxrate=12000 / vbv-bufsize=12000 / crf-max=0.0 / ipratio=1.40 / pbratio=1.30
Язык                                     : English
Default                                  : Да
Forced                                   : Нет
Цветовой диапазон                        : Limited
Коэффициенты матрицы                     : BT.709
Аудио
Идентификатор                            : 2
Формат                                   : AC-3
Формат/Информация                        : Audio Coding 3
Расширение режима                        : CM (complete main)
Параметр Endianness формата              : Big
Идентификатор кодека                     : A_AC3
Продолжительность                        : 1 ч. 41 м.
Вид битрейта                             : Постоянный
Битрейт                                  : 448 Кбит/сек
Каналы                                   : 6 каналов
Расположение каналов                     : Front: L C R, Side: L R, LFE
Частота                                  : 48,0 КГц
Частота кадров                           : 31,250 кадров/сек (1536 spf)
Метод сжатия                             : С потерями
Задержка видео                           : -42 мс.
Размер потока                            : 324 Мбайт (7%)
Язык                                     : Russian
Default                                  : Да
Forced                                   : Нет
XMP
Xmp.video.FileName           : E:\Video\Маска (The Mask).mkv
Xmp.video.FileSize           : -9.53674e-007
Xmp.video.MimeType           : video/matroska
Xmp.video.EBMLVersion        : 1
Xmp.video.EBMLReadVersion    : 1
Xmp.video.DocType            : matroska
Xmp.video.DocTypeVersion     : 4
Xmp.video.DocTypeReadVersion : 2
Xmp.video.TimecodeScale      : 0.001
Xmp.video.MuxingApp          : libebml v1.3.3 + libmatroska v1.4.4
Xmp.video.WritingApp         : mkvmerge v9.0.1 ('Obstacles') 64bit
Xmp.video.Duration           : 6072442
Xmp.video.DateUTC            : 493640508
Xmp.video.Title              : Маска / The Mask
Xmp.video.TotalStream        : 6
Xmp.video.TrackLacing        : No
Xmp.video.Codec              : V_MPEGH/ISO/HEVC
Xmp.video.FrameRate          : 23.976
Xmp.video.Width              : 1920
Xmp.video.Height             : 1080
Xmp.audio.Compressor         : A_AC3
Xmp.audio.DefaultDuration    : 32000
Xmp.audio.TrackLang          : rus
Xmp.audio.SampleRate         : 48000
Xmp.video.AttachFileName     : aec555a58165a189aebcff7e81918410.jpg
Xmp.video.AttachFileMIME     : image/jpeg
Xmp.video.AttachFileUID      : -3249827873687986250
Xmp.video.AttachFileDesc     : Cover
Xmp.video.AspectRatio        : 16:9
Скриншоты:
Яндекс.Метрика
Рейтинг@Mail.ru