Саратовский подход / The Saratov Approach (2013) HDRip [VO]

 

Создавать темы 25-Авг-2016 10:23

-Саратовский подход / The Saratov Approach (2013) HDRip
«Kidnapped, Ransomed, Saved»
- Производство: США, Украина
Жанр: Боевик, Драма
Режиссер: Гаррет Бэтти
Актеры: Корбин Оллред, Маклейн Нельсон, Никита Боголюбов, Алекс Видов, Брюс Ньюболд, Пегги Мэтисон, Пол Малдер, Бретт Мерритт, Барт Джонсон
Описание:
Фильм основан на реальных событиях, и повествует о двух американских мормонских миссионерах, которые были похищены в Саратове в 1998 году с требованием выкупа. Их продержали в заложниках в течение пяти дней, запросив у членов Церкви Иисуса Христа Святых последних дней выкуп в размере более 300 000 долларов США. Фильм получил большой успех в США (как коммерческий, так и среди кинокритиков. Но фильм не снимался в Саратове. Все кадры были сняты в Киеве (Украина) и в американском штате Юта. Сообщалось, что фильм не удалось снять в России в связи с отказом в выдаче виз американской съёмочной группе. Из-за этого инфраструктура показанного в фильме Саратова разительно отличается от реальной. В России в прокат не был выпущен.
Продолжительность: 01:40:41
Качество видео: HDRip
Перевод: Любительский одноголосый закадровый (xixidok)
Видеокодек: Xvid, ~1647 Kbps, 656x272
Аудио: MP3, 44.1 kHz, 2 ch, 192 Kbps

Mediainfo

Общее
Полное имя                               : D:\Download\The.Saratov.Approach.2013.avi
Формат                                   : AVI
Формат/Информация                        : Audio Video Interleave
Размер файла                             : 1,30 Гбайт
Продолжительность                        : 1 ч. 40 м.
Общий поток                              : 1849 Кбит/сек
Программа кодирования                    : VirtualDubMod 1.5.10.2 (build 2540/release)
Библиотека кодирования                   : VirtualDubMod build 2540/release
Видео
Идентификатор                            : 0
Формат                                   : MPEG-4 Visual
Профиль формата                          : Advanced [email protected]
Параметр BVOP формата                    : Да
Параметр QPel формата                    : Нет
Параметр GMC формата                     : Без точки перехода
Параметр матрицы формата                 : Default (H.263)
Идентификатор кодека                     : XVID
Идентификатор кодека/Подсказка           : XviD
Продолжительность                        : 1 ч. 40 м.
Битрейт                                  : 1648 Кбит/сек
Ширина                                   : 656 пикселей
Высота                                   : 272 пикселя
Соотношение сторон                       : 2,40:1
Частота кадров                           : 23,976 кадра/сек
Цветовое пространство                    : YUV
Субдискретизация насыщенности            : 4:2:0
Битовая глубина                          : 8 бит
Тип развёртки                            : Прогрессивная
Метод сжатия                             : С потерями
Бит/(Пиксели*Кадры)                      : 0.385
Размер потока                            : 1,16 Гбайт (89%)
Библиотека кодирования                   : XviD 1.2.1 (UTC 2008-12-04)
Аудио
Идентификатор                            : 1
Формат                                   : MPEG Audio
Версия формата                           : Version 1
Профиль формата                          : Layer 3
Идентификатор кодека                     : 55
Идентификатор кодека/Подсказка           : MP3
Продолжительность                        : 1 ч. 40 м.
Вид битрейта                             : Постоянный
Битрейт                                  : 192 Кбит/сек
Каналы                                   : 2 канала
Частота                                  : 44,1 КГц
Метод сжатия                             : С потерями
Размер потока                            : 138 Мбайт (10%)
Выравнивание                             : Разделение по промежуткам
Продолжительность промежутка             : 42  мс. (1,00 видеокадр)
Время предзагрузки промежутка            : 500  мс.
Скриншоты:
Яндекс.Метрика
Рейтинг@Mail.ru