Тарбозавр / Jeombaki: Hanbandoeui Gongryong (Хань Сан-Хо / Han Sang-Ho) [2012 г., мультфильм, приключения, BDRip-AVC, 720p] Dub [Студия "Баритон"]

 

Создавать темы 24-Авг-2016 05:12

-Тарбозавр / Jeombaki: Hanbandoeui Gongryong-- Производство: Корея Южная
Год выпуска: 2012 г.
Жанр: мультфильм, приключения
Продолжительность: 01:28:39Мировая премьера: 26 января 2012
Российская премьера: 17 мая 2012, «Каравелла DDC»
Дата выхода DVD: 13 июня 2012, «Кармен Видео»
Дата выхода Blu-Ray: 13 июня 2012, «Кармен Видео»Перевод: Профессиональный (полное дублирование) [Студия "Баритон"]
Режиссер: Хань Сан-Хо / Han Sang-Ho-В ролях: Гу Джа-Хён, Ли Хён Сок, Син Ён-ву, …
Дублёры: Василиса Эльдарова, Василий Дахненко, Прохор Чеховской,-Описание: 70 миллионов лет назад динозавры владели миром. В бескрайних лесах обитало бесчисленное множество разновидностей этих удивительных животных. Самый молодой из семьи Тарбозавров, игривый и любопытный малыш по имени Пятнистый, с нетерпением ждет, когда же старшие собратья возьмут его на охоту, чтобы преподать первые уроки взрослой жизни. Но когда наступает этот долгожданный день, на стадо тарбозавров нападает жуткий тираннозавр Одноглазый. Потерявшись, Пятнистый встречается с другим динозавриком, отбившимся от родных, — Синеглазкой. Отныне малышам предстоит вместе сражаться за жизнь. Впереди друзей ждут долгие годы, наполненные любовью, страхом, печалью и радостью, счастьем и надеждой.-
Качество видео: BDRip-AVC
Контейнер: MKV
Стандарт разрешения: 720p
Видео кодек: MPEG4 AVC
Аудио кодек: AC3
Видео: AVC, 3500 Kb/s, 1232x688, 23,976 (24000/1001) кадра/сек
Аудио: AC3, 640 kbps, 6 ch, 48,0 КГц
Cубтитры: отсутствуют

Рецензия

Путешествие на 80 млн. лет назадНа этот мультфильм я давно собирался сходить. Но, как-то времени не было. И вот, в последний день проката я объявился на пороге кинотеатра и купил билет. И, к моему великому счастью, никого, кроме меня не было.И вот, начался фильм. Первое, что меня поразило в этом мультфильме, это природа. Очень красивая. Я думал, что её очень долго рисовали на компьютере. Но как оказалось, это была не анимация, а действительно настоящие пейзажи.Динозавры. Их множество. Они не одинаковые, как в BBC. И это радует. У некоторых динозавров есть хохолки, а у некоторых — рога. И приятно самому найти различия между динозаврами.Сюжет очень средний. Главный герой, Тарбозавр Пятнистый, пошел вместе со своими родственниками на охоту. Их цель — травоядные около водопоя. И вдруг другой Тарбозавр, Одноглазый, который охотится по одиночке, нападает на всех динозавров у водопоя. Начинается побег с этого места, в следствии чего почти все динозавры оказываются на краю обрыва. Среди них оказываются и родственники Пятнистого. Начинается борьба между Одноглазым и остальными динозаврами. В результате кровавого боя, погибают все родственники Пятнистого. И после этого, наш бестрашный Тарбозаврик решает отомстить кровожадному Одноглазому. Вскоре Пятнистый находит себе подружку, Тарбозавриху Синеглазку, которая тоже осталась одна. И теперь они вместе выживают в этом большом мире и ждут битвы с Одноглазым.На протяжении всего мультфильма звучит музыка. Очень красивая. Когда персонаж страдает, музыка страдает. Когда персонаж радуется, музыка тоже радуется. Вместе картинка и музыка сочетаются.3D здесь самое лучшее, давно зрители ждут эффекта под названием «предметы летят в глаза». Что пузырьки в море, что огромные когти динозавров.В итоге мы получаем хороший мультфильм, который могут смотреть и дети, и взрослые.8 из 10

Media Info

Общее
Уникальный идентификатор : 245707333141282051429155719424841310202 (0xB8D982D3DC4086609E04836B28BF5FFA)
Полное имя : J:\Тарбозавр\Tarbozavr.2012.BDRip.720p.[pirat.ca].mkv
Формат : Matroska
Версия формата : Version 2
Размер файла : 2,56 Гбайт
Продолжительность : 1 ч. 28 м.
Общий поток : 4141 Кбит/сек
Дата кодирования : UTC 2016-08-23 15:45:27
Программа кодирования : mkvmerge v5.3.0 ('I could have danced') built on Feb 9 2012 10:38:07
Библиотека кодирования : libebml v1.2.3 + libmatroska v1.3.0Видео
Идентификатор : 1
Формат : AVC
Формат/Информация : Advanced Video Codec
Профиль формата : [email protected]/* */
Параметр CABAC формата : Да
Параметр ReFrames формата : 12 кадров
Идентификатор кодека : V_MPEG4/ISO/AVC
Продолжительность : 1 ч. 28 м.
Битрейт : 3500 Кбит/сек
Ширина : 1232 пикселя
Высота : 688 пикселей
Соотношение сторон : 16:9
Режим частоты кадров : Постоянный
Частота кадров : 23,976 (24000/1001) кадра/сек
Цветовое пространство : YUV
Субдискретизация насыщенности : 4:2:0
Битовая глубина : 8 бит
Тип развёртки : Прогрессивная
Бит/(Пиксели*Кадры) : 0.172
Размер потока : 2,12 Гбайт (83%)
Библиотека кодирования : x264 core 130 r2273 b3065e6
Настройки программы : cabac=1 / ref=12 / deblock=1:-3:-3 / analyse=0x3:0x133 / me=umh / subme=11 / psy=1 / psy_rd=1.00:0.05 / mixed_ref=1 / me_range=48 / chroma_me=1 / trellis=2 / 8x8dct=1 / cqm=0 / deadzone=21,11 / fast_pskip=0 / chroma_qp_offset=-3 / threads=6 / lookahead_threads=1 / sliced_threads=0 / nr=0 / decimate=0 / interlaced=0 / bluray_compat=0 / constrained_intra=0 / bframes=10 / b_pyramid=2 / b_adapt=1 / b_bias=0 / direct=3 / weightb=1 / open_gop=0 / weightp=2 / keyint=250 / keyint_min=23 / scenecut=40 / intra_refresh=0 / rc_lookahead=40 / rc=2pass / mbtree=0 / bitrate=3500 / ratetol=1.0 / qcomp=0.60 / qpmin=0 / qpmax=69 / qpstep=4 / cplxblur=20.0 / qblur=0.5 / vbv_maxrate=25000 / vbv_bufsize=62500 / nal_hrd=none / ip_ratio=1.40 / pb_ratio=1.30 / aq=1:1.00
Язык : English
Default : Да
Forced : Нет
Statistics Tags Issue : mkvmerge v9.3.1 ('Mask Machine') 64bit 2016-08-15 18:24:43 / mkvmerge v5.3.0 ('I could have danced') built on Feb 9 2012 10:38:07 2016-08-23 15:45:27
FromStats_BitRate : 3498795
FromStats_Duration : 01:28:39.523000000
FromStats_FrameCount : 127541
FromStats_StreamSize : 2326490396Аудио
Идентификатор : 2
Формат : AC-3
Формат/Информация : Audio Coding 3
Расширение режима : CM (complete main)
Параметр Endianness формата : Big
Идентификатор кодека : A_AC3
Продолжительность : 1 ч. 28 м.
Вид битрейта : Постоянный
Битрейт : 640 Кбит/сек
Каналы : 6 каналов
Расположение каналов : Front: L C R, Side: L R, LFE
Частота : 48,0 КГц
Частота кадров : 31,250 кадров/сек (1536 spf)
Метод сжатия : С потерями
Размер потока : 406 Мбайт (15%)
Язык : Russian
Default : Да
Forced : Нет
Statistics Tags Issue : mkvmerge v9.3.1 ('Mask Machine') 64bit 2016-08-15 18:24:43 / mkvmerge v5.3.0 ('I could have danced') built on Feb 9 2012 10:38:07 2016-08-23 15:45:27
FromStats_BitRate : 640000
FromStats_Duration : 01:28:39.616000000
FromStats_FrameCount : 166238
FromStats_StreamSize : 425569280

Скриншот c названием фильма

Скриншоты

-Трейлер
Яндекс.Метрика
Рейтинг@Mail.ru