[ Сегодня на трекере фрилич! Идет свободное скачивание без начисления Download ]

Девушка на краю / Girl on the Edge (2015) WEB-DLRip

 

Создавать темы 18-Авг-2016 13:48

- Девушка на краю / Girl on the Edge (2015) WEB-DLRip - Производство: США
Жанр: драма, семейный
Режиссер: Джей Силверман
Актеры: Тейлор Спрейтлер, Питер Койот, Джил Беллоуз, Эми Прайс-Фрэнсис, Шэйн Грэхэм, Элизабет Пенья, Эми Дэвидсон, Рекс Ли, МакКензи Филлипс, Жизелль Бонилья и др.
Описание:
Ханна Грин - беспокойная девушка-подросток, которая переживает глубочайшую депрессию. Всему причиной стало нападение интернет-маньяка. Родители Ханны решают помочь дочери и отправить её в реабилитационный центр посреди пустыни.
Вы можете скачать драму "Девушка на краю" через торрент и узнать, сможет ли героиня преодолеть депрессию и остаться в живых.
Продолжительность: 01:44:28
Качество видео: WEB-DLRip [thumb]http://sendfile.su/1257988[/thumb]
Перевод: Многоголосый закадровый, любительский
Реклама: присутствуют аудио и видео вставки рекламы.
Видео: XVID, 1 672 kb/s, 720х400
Аудио: AC-3, 192 kb/s, 2 ch, 48.0 kHz

Mediainfo:

Girl.on.the.Edge.2015.P.WEB-DLRip.14OOMB.avi
Format                         : AVI
Format/Info                    : Audio Video Interleave
File size                      : 1.37 GiB
Duration                       : 1 h 44 min
Overall bit rate               : 1 873 kb/s
Writing application            : VirtualDubMod 1.5.10.2 (build 2540/release)
Writing library                : VirtualDubMod build 2540/release
Video
ID                             : 0
Format                         : MPEG-4 Visual
Format profile                 : Advanced [email protected]
Format settings, BVOP          : 2
Format settings, QPel          : No
Format settings, GMC           : No warppoints
Format settings, Matrix        : Custom
Codec ID                       : XVID
Codec ID/Hint                  : XviD
Duration                       : 1 h 44 min
Bit rate                       : 1 672 kb/s
Width                          : 720 pixels
Height                         : 400 pixels
Display aspect ratio           : 16:9
Frame rate                     : 23.976 (24000/1001) FPS
Color space                    : YUV
Chroma subsampling             : 4:2:0
Bit depth                      : 8 bits
Scan type                      : Progressive
Compression mode               : Lossy
Bits/(Pixel*Frame)             : 0.242
Stream size                    : 1.22 GiB (89%)
Writing library                : XviD 1.2.1 (UTC 2008-12-04)
Audio
ID                             : 1
Format                         : AC-3
Format/Info                    : Audio Coding 3
Mode extension                 : CM (complete main)
Format settings, Endianness    : Big
Codec ID                       : 2000
Duration                       : 1 h 44 min
Bit rate mode                  : Constant
Bit rate                       : 192 kb/s
Channel(s)                     : 2 channels
Channel positions              : Front: L R
Sampling rate                  : 48.0 kHz
Frame rate                     : 31.250 FPS (1536 spf)
Compression mode               : Lossy
Stream size                    : 143 MiB (10%)
Alignment                      : Split accross interleaves
Interleave, duration           : 42  ms (1.00 video frame)
Interleave, preload duration   : 500  ms
Скриншоты:
Яндекс.Метрика
Рейтинг@Mail.ru