[ Сегодня на трекере фрилич! Идет свободное скачивание без начисления Download ]

Тело / Body (2015) HDRip

 

Создавать темы 18-Авг-2016 13:47

- Тело / Body (2015) HDRip - Производство: США
Жанр: триллер, драма
Режиссер: Дэн Берк, Роберт Ольсен
Актеры: Хелен Роджерс, Александра Туршен, Лорен Молина, Ларри Фессенден, Adam Cornelius, Дэн Бреннан, Кимберли Флинн, Йен Робинсон, Jack Brenner, Майк Келлер и др.
Описание:
Три подруги маются от скуки в канун Рождества. И тут у одной из них возникает замечательная идея — провести рождественскую ночь в особняке её дяди, так как тот с семьёй уехал на каникулы. Девушки залезают в шикарный дом и весело проводят время, но вдруг на пороге появляется незнакомый мужчина. Вскоре выясняется, что идея была не такая уж и замечательная.-Продолжительность: 01:16:10
Качество видео: HDRip
Перевод: Многоголосый закадровый, любительский
Реклама: присутствуют аудио и видео вставки рекламы.
Видео: Xvid, 720x304, 2107 Kbps
Аудио: AC3, 2 ch, 448 Kb/s

Mediainfo:

body.2015.P.BDRip.14OOMB.avi
Format                         : AVI
Format/Info                    : Audio Video Interleave
File size                      : 1.36 GiB
Duration                       : 1 h 16 min
Overall bit rate               : 2 564 kb/s
Writing application            : VirtualDubMod 1.5.10.2 (build 2540/release)
Writing library                : VirtualDubMod build 2540/release
Video
ID                             : 0
Format                         : MPEG-4 Visual
Format profile                 : Advanced [email protected]
Format settings, BVOP          : 2
Format settings, QPel          : No
Format settings, GMC           : No warppoints
Format settings, Matrix        : Custom
Codec ID                       : XVID
Codec ID/Hint                  : XviD
Duration                       : 1 h 16 min
Bit rate                       : 2 107 kb/s
Width                          : 720 pixels
Height                         : 304 pixels
Display aspect ratio           : 2.35:1
Frame rate                     : 23.976 (24000/1001) FPS
Color space                    : YUV
Chroma subsampling             : 4:2:0
Bit depth                      : 8 bits
Scan type                      : Progressive
Compression mode               : Lossy
Bits/(Pixel*Frame)             : 0.401
Stream size                    : 1.12 GiB (82%)
Writing library                : XviD 1.2.1 (UTC 2008-12-04)
Audio
ID                             : 1
Format                         : AC-3
Format/Info                    : Audio Coding 3
Mode extension                 : CM (complete main)
Format settings, Endianness    : Big
Codec ID                       : 2000
Duration                       : 1 h 16 min
Bit rate mode                  : Constant
Bit rate                       : 448 kb/s
Channel(s)                     : 2 channels
Channel positions              : Front: L R
Sampling rate                  : 48.0 kHz
Frame rate                     : 31.250 FPS (1536 spf)
Compression mode               : Lossy
Stream size                    : 244 MiB (17%)
Alignment                      : Split accross interleaves
Interleave, duration           : 42  ms (1.00 video frame)
Interleave, preload duration   : 500  ms
Скриншоты:
Яндекс.Метрика
Рейтинг@Mail.ru