[ Сегодня на трекере фрилич! Идет свободное скачивание без начисления Download ]

Пиф-паф / Bang Bang (Сиддхарт Ананд / Siddharth Anand) [2014 г., боевик, мелодрама, комедия, HDRip] MVO [SDI Media]

 

Создавать темы 12-Авг-2016 03:46

-Пиф-паф / Bang Bang-- Производство: Индия, Fox STAR Studios
Год выпуска: 2014 г.
Жанр: боевик, мелодрама, комедия
Продолжительность: 02:33:08Мировая премьера: 26 сентября 2014
Перевод: Профессиональный (многоголосый, закадровый) [SDI Media]
Режиссер: Сиддхарт Ананд / Siddharth Anand-В ролях: Ритик Рошан(Rajveer Nanda), Катрина Кэйф(Harleen Sahani), Паван Малхотра(Zorawar Kalwa), Дэнни Дензонгпа(Omar Zafar), Джавед Джеффри(Hamid Gul), Джимми Шергилл(Colonel Viren Nanda), Викрам Гокхале(ISS Chief Narayanan), Канвалджит Сингх(Rajveer's Father), Дипти Навал(Rajveer's Mother), Камлеш Гилл(Dadi, Harleen's grandmother), Партх Акеркар(Robert), Pratik Dixit(Karan Saxena)-Описание: Случайная встреча скромной банковской служащей Харлин Сахни с обаятельным, но загадочным Раджвиром Нанда приводит к угробленным самолетам, погоням, перестрелкам, взрывам и к общему глобальному беспределу. Но хотя разворачивается трансконтинентальная погоня, Раджвир убеждает Харлин, что он хороший парень. Но действительно ли она может доверять ему, и стоит ли доверять, когда начинают летать пули?-
Качество видео: HDRip
Контейнер: AVI
Видео кодек: Другой MPEG4
Аудио кодек: AC3
Видео: 720x304 (2.37:1), 24 fps, FMP4, ~1638 kbps avg, 0.31 bit/pixel
Аудио: 48 kHz, AC3 Dolby Digital, 6 ch, ~384.00 kbps avg
Cубтитры: отсутствуют

Рецензия

Сегодня ты видешь в этих глазах победу, но придет время и в этих же самых глазах ты увидешь свою смерть!Один из долгожданных фильмов — «Пиф-Паф»,наконец то был мною просмотрен. Скажу сразу я получила бурю эмоций. Просто смотрела и наслаждалась.-«Какой сегодня день?»
-«Сегодня тот самый день. Да, тот самый»Дуэт Ритик Рошан и Катрина Каиф внушает доверие, заставляют сопереживать им или радоваться развитию их отношений. Мне хотелось улыбаться вместе с ними, бояться, прыгать, бежать — ведь что ни минута, то действие. Было очень приятно, наслаждающе наблюдать за игрой Ритика Рошана. Его глаза, его тело — не позволяет оторвать от него глаз. Он великолепен!Безумно классный боевик в котором нет ни одной нудной сцены, нет лишних действий, все очень правильно, красиво, романтично и захватывающе!Фильм идет два часа, но время проходит незаметно, затаив дыхание, — хороший сценарий, отличные спецэффекты и красивые пейзажи делает свое дело.ИтогЯ получила удовольствие от просмотра. Ритик Рошан был украшением фильма. Безусловно фильм заслуживает высокой оценки. Просто смотрите и наслаждайтесь.10 из 10

Media Info

Общее
Полное имя : D:\D\Пиф-паф\Bang Bang.2014.HDRip.[pirat.ca].avi
Формат : AVI
Формат/Информация : Audio Video Interleave
Профиль формата : OpenDML
Настройки формата : rec
Размер файла : 2,16 Гбайт
Продолжительность : 2 ч. 32 м.
Общий поток : 2029 Кбит/сек
Программа кодирования : AVI-Mux GUI 1.17.8.3, Feb 16 201019:42:50Видео
Идентификатор : 0
Формат : MPEG-4 Visual
Параметр BVOP формата : Нет
Параметр QPel формата : Нет
Параметр GMC формата : Без точки перехода
Параметр матрицы формата : Default (H.263)
Идентификатор кодека : FMP4
Продолжительность : 2 ч. 32 м.
Битрейт : 1640 Кбит/сек
Ширина : 720 пикселей
Высота : 304 пикселя
Соотношение сторон : 2,35:1
Частота кадров : 24,000 кадра/сек
Цветовое пространство : YUV
Субдискретизация насыщенности : 4:2:0
Битовая глубина : 8 бит
Тип развёртки : Прогрессивная
Метод сжатия : С потерями
Бит/(Пиксели*Кадры) : 0.312
Размер потока : 1,75 Гбайт (81%)
Библиотека кодирования : Lavc51.40.4Аудио
Идентификатор : 1
Формат : AC-3
Формат/Информация : Audio Coding 3
Расширение режима : CM (complete main)
Параметр Endianness формата : Big
Идентификатор кодека : 2000
Продолжительность : 2 ч. 32 м.
Вид битрейта : Постоянный
Битрейт : 384 Кбит/сек
Каналы : 6 каналов
Расположение каналов : Front: L C R, Side: L R, LFE
Частота : 48,0 КГц
Частота кадров : 31,250 кадров/сек (1536 spf)
Метод сжатия : С потерями
Размер потока : 419 Мбайт (19%)
Выравнивание : Соединение по промежуткам
Продолжительность промежутка : 64 мс. (1,54 видеокадра)
Время предзагрузки промежутка : 192 мс.

Скриншот c названием фильма

Скриншоты

-Трейлер
Яндекс.Метрика
Рейтинг@Mail.ru