[ Сегодня на трекере фрилич! Идет свободное скачивание без начисления Download ]

Страх глубины / In the Deep (Йоханнес Робертс / Johannes Roberts) [2016 г., триллер, DVDRip-AVC] DVO

 

Создавать темы 11-Авг-2016 04:58

-Страх глубины / In the Deep-- Производство: Великобритания, Dimension Films, Flexibon Films, Fyzz Facility, The, Tea Shop & Film Company
Год выпуска: 2016 г.
Жанр: триллер
Продолжительность: 01:29:08Мировая премьера: 2 августа 2016
Перевод: Профессиональный (двухголосый, закадровый) [RecentFilms]
Режиссер: Йоханнес Робертс / Johannes Roberts-В ролях: Клер Холт, Мэнди Мур, Мэттью Модайн, Сантьяго Сегура, Яни Гельман, Крис Дж. Джонсон и др.-Описание: В центре сюжета — сестры Кейт и Лиза, приехавшие на отдых в Мексику. В поисках острых ощущений Кейт убеждает сестру опуститься под воду в клетке и посмотреть на белых акул. Клетка обрывается, и девушки оказываются на глубине 47 метров с запасом кислорода менее чем на час в двух часах пути от берега в окружении самых опасных морских хищников.-
Качество видео: DVDRip-AVC
Контейнер: MKV
Видео кодек: MPEG4 AVC
Аудио кодек: AC3
Видео: AVC/H.264, 720x304, ~1828 Kbps
Аудио: AC3, 384 kbps, 6 ch, 48 kHz
Cубтитры: отсутствуют

Рецензия

Неплохая банда собралась возле данного проекта, исполнительные продюсеры братья Вайнштейны, а также Александр Ажа, который на кинопорталах нигде и никак не прикреплен к фильму, но в начальных титрах почетно упомянут. Если я скажу, что это лучший shark-триллер за последние годы — многие не согласятся возможно, и еще это будет звучать как-то слишком сенсационно.Но «Страх глубины» действительно неплохой фильм, пусть будет не посвящает себя полностью борьбе человека с подводными хищницами, но он оказался атмосферным и напряженным, иногда заставляющий затаить дыхание на минут десять. Две сестры на отдыхе в Мексике соглашаются на предложение новых приятелей поплавать с акулами в клетке, процедура вроде откатана местными по полной, однако не в этот раз.Кран с тросом удерживающим клетку обрывается и отправляет наших героин на более чем сорокаметровую глубину, кислорода осталось менее чем на час. В данной ленте герои противостоят не только нескольким шестиметровым белым акулам, но еще и самой ситуации в которой оказались, разница в давлении, кислород, полная темнота на дне, отсутствие радиосвязи с катером, и прочие сюжетные повороты.Хищницы прорисованы пусть и не самым идеальным образом, однако поведение акул на удивление лишено привычных банальных жанровых клише. Есть несколько бу-моментов, однако они единичны, и эти гигантские рыбки внушают страх. Также в картине происходят два условных финала, и стоит признать, оба они смотрятся отлично. Как итог — к удивлению хороший триллер, который будто родился из ниоткуда, с учетом того, какой трэш наполняет подобный жанр, «Страх глубины» на голову выше благодаря более-менее серьезному сценарию.8 из 10

Media Info

Oбщее
Уникальный идентификатор : 201632680925442602177589283480871538629 (0x97B10AB326D8CA6E9E8C4C8CA7BE8FC5)
Полное имя : J:\Страх глубины\Strah Glubiny.2016.DVDRip-AVC.[pirat.ca].mkv
Формат : Matroska
Версия формата : Version 2
Размер файла : 1,38 Гбайт
Продолжительность : 1 ч. 29 м.
Общий поток : 2213 Кбит/сек
Название фильма : In the Deep 2016
Дата кодирования : UTC 2016-08-10 12:12:00
Программа кодирования : mkvmerge v5.3.0 ('I could have danced') built on Feb 9 2012 10:38:07
Библиотека кодирования : libebml v1.2.3 + libmatroska v1.3.0Видео
Идентификатор : 1
Формат : AVC
Формат/Информация : Advanced Video Codec
Профиль формата : [email protected]/* */
Параметр CABAC формата : Да
Параметр ReFrames формата : 5 кадров
Идентификатор кодека : V_MPEG4/ISO/AVC
Продолжительность : 1 ч. 29 м.
Битрейт : 1828 Кбит/сек
Ширина : 720 пикселей
Высота : 304 пикселя
Соотношение сторон : 2,35:1
Режим частоты кадров : Постоянный
Частота кадров : 23,976 (24000/1001) кадра/сек
Цветовое пространство : YUV
Субдискретизация насыщенности : 4:2:0
Битовая глубина : 8 бит
Тип развёртки : Прогрессивная
Бит/(Пиксели*Кадры) : 0.348
Размер потока : 1,11 Гбайт (81%)
Библиотека кодирования : x264 core 148 r2638 7599210
Настройки программы : cabac=1 / ref=5 / deblock=1:-3:-3 / analyse=0x3:0x113 / me=umh / subme=7 / psy=1 / psy_rd=1.00:0.00 / mixed_ref=1 / me_range=24 / chroma_me=1 / trellis=1 / 8x8dct=1 / cqm=0 / deadzone=21,11 / fast_pskip=1 / chroma_qp_offset=-2 / threads=9 / lookahead_threads=1 / sliced_threads=0 / nr=0 / decimate=1 / interlaced=0 / bluray_compat=0 / constrained_intra=0 / bframes=3 / b_pyramid=2 / b_adapt=2 / b_bias=0 / direct=1 / weightb=1 / open_gop=0 / weightp=2 / keyint=240 / keyint_min=23 / scenecut=40 / intra_refresh=0 / rc_lookahead=40 / rc=2pass / mbtree=1 / bitrate=1828 / ratetol=1.0 / qcomp=0.60 / qpmin=0 / qpmax=69 / qpstep=4 / cplxblur=20.0 / qblur=0.5 / vbv_maxrate=62500 / vbv_bufsize=78125 / nal_hrd=none / filler=0 / ip_ratio=1.40 / aq=1:1.00
Язык : English
Default : Да
Forced : Нет
Цветовой диапазон : Limited
Основные цвета : BT.709
Характеристики трансфера : BT.709
Коэффициенты матрицы : BT.709Аудио
Идентификатор : 2
Формат : AC-3
Формат/Информация : Audio Coding 3
Расширение режима : CM (complete main)
Параметр Endianness формата : Big
Идентификатор кодека : A_AC3
Продолжительность : 1 ч. 29 м.
Вид битрейта : Постоянный
Битрейт : 384 Кбит/сек
Каналы : 6 каналов
Расположение каналов : Front: L C R, Side: L R, LFE
Частота : 48,0 КГц
Частота кадров : 31,250 кадров/сек (1536 spf)
Метод сжатия : С потерями
Размер потока : 245 Мбайт (17%)
Язык : Russian
Default : Да
Forced : Нет

Скриншот c названием фильма

Скриншоты

-
Яндекс.Метрика
Рейтинг@Mail.ru