Фатальный инстинкт / Fatal Instinct (Карл Райнер / Carl Reiner) [1993 г., комедия, триллер, криминал, BDRip-AVC] DVO [«НТВ»] + MVO [«1+1» - украинский]

 

Создавать темы 10-Авг-2016 03:33

-Фатальный инстинкт / Fatal Instinct-- Производство: США, Metro-Goldwyn-Mayer
Год выпуска: 1993 г.
Жанр: комедия, триллер, криминал
Продолжительность: 01:29:51Мировая премьера: 29 октября 1993
Перевод: Профессиональный (двухголосый, закадровый) [«НТВ»]
Перевод 2: Профессиональный (многоголосый, закадровый) [«1+1» - украинский]
Режиссер: Карл Райнер / Carl Reiner-В ролях: Арманд Ассанте, Шерилин Фенн, Кейт Неллиган, Шон Янг, Кристофер МакДональд, Джеймс Римар, Тони Рэндалл, Кларенс Клемонс, Майкл Кампсти, Джон Уизерспун-Описание: Полицейский и адвокат в одном лице являет собой воплощённый укор всей правовой системе, где тупоголовые полицейские ловят идиотов-преступников, которых судят продажные судьи, вкупе с такими же присяжными.-
Качество видео: BDRip-AVC
Контейнер: MKV
Видео кодек: MPEG4 AVC
Аудио кодек: AC3
Видео: MPEG-4 AVC/H.264, 1280x688 (1,85:1), 5293 kbps, 23.976 fps
Аудио: АС3 2.0, 192 kbps, 48 000 Hz - DVO - «НТВ»
Аудио #2: АС3 2.0, 192 kbps, 48 000 Hz - MVO - «1+1» - украинский
Cубтитры: отсутствуют

Рецензия

Классная пародияМы, фанаты жанра кинопародии, пересматривая в пятисотый раз киношедевры братьев Цукер и Абрахамса, конечно же, не забудем и о героях «второго эшелона», к коим, безусловно, относится и Фатальный инстинкт, наряду с работами Брукса, Заряженным оружием, Граалем, Житием Брайанта, Неистребимым шпионом и некоторыми другими.«Инстинкт» с самого начала выливает на вас такую гору качественных гэгов и аллюзий, что с определенного момента вы начинаете буквально утопать в них, корчась в экстазе, если вы, конечно же, «в теме».И посыл, и подача, и сорт — ну всё как у Цукеров. Ну просто, МО-ЛОД-ЦЫ!10 из 10

Media Info

Общее
Уникальный идентификатор : 222032830762849215765385907124381848354 (0xA709F7BDD470575F988BF07E58469322)
Полное имя : F:\Фатальный инстинкт\Fatal Instinct.1993.720p.BDRip-AVC.[pirat.ca].mkv
Формат : Matroska
Версия формата : Version 2
Размер файла : 3,56 Гбайт
Продолжительность : 1 ч. 29 м.
Общий поток : 5678 Кбит/сек
Дата кодирования : UTC 2016-08-09 09:13:42
Программа кодирования : mkvmerge v5.3.0 ('I could have danced') built on Feb 9 2012 10:38:07
Библиотека кодирования : libebml v1.2.3 + libmatroska v1.3.0
Обложка : Yes
Attachments : cover.jpg
DIRECTOR : CARL REINER
RELEASE : KoenigВидео
Идентификатор : 1
Формат : AVC
Формат/Информация : Advanced Video Codec
Профиль формата : [email protected]/* */
Параметр CABAC формата : Да
Параметр ReFrames формата : 9 кадров
Идентификатор кодека : V_MPEG4/ISO/AVC
Продолжительность : 1 ч. 29 м.
Битрейт : 5293 Кбит/сек
Ширина : 1280 пикселей
Высота : 688 пикселей
Соотношение сторон : 1,85:1
Режим частоты кадров : Постоянный
Частота кадров : 23,976 (24000/1001) кадра/сек
Цветовое пространство : YUV
Субдискретизация насыщенности : 4:2:0
Битовая глубина : 8 бит
Тип развёртки : Прогрессивная
Бит/(Пиксели*Кадры) : 0.251
Размер потока : 3,25 Гбайт (91%)
Библиотека кодирования : x264 core 146 r2538 121396c
Настройки программы : cabac=1 / ref=9 / deblock=1:-3:-3 / analyse=0x3:0x133 / me=umh / subme=9 / psy=1 / psy_rd=1.00:0.10 / mixed_ref=1 / me_range=32 / chroma_me=1 / trellis=2 / 8x8dct=1 / cqm=0 / deadzone=21,11 / fast_pskip=1 / chroma_qp_offset=-3 / threads=3 / lookahead_threads=1 / sliced_threads=0 / nr=0 / decimate=1 / interlaced=0 / bluray_compat=0 / constrained_intra=0 / bframes=9 / b_pyramid=2 / b_adapt=2 / b_bias=0 / direct=3 / weightb=1 / open_gop=0 / weightp=2 / keyint=240 / keyint_min=23 / scenecut=40 / intra_refresh=0 / rc_lookahead=40 / rc=2pass / mbtree=1 / bitrate=5293 / ratetol=1.0 / qcomp=0.60 / qpmin=10 / qpmax=51 / qpstep=4 / cplxblur=20.0 / qblur=0.5 / vbv_maxrate=50000 / vbv_bufsize=62500 / nal_hrd=none / filler=0 / ip_ratio=1.40 / aq=1:1.00
Default : Да
Forced : Нет
Statistics Tags Issue : mkvmerge v7.7.0 ('Six Voices') 32bit built on Feb 28 2015 23:23:00 2015-12-17 15:36:21 / mkvmerge v5.3.0 ('I could have danced') built on Feb 9 2012 10:38:07 2016-08-09 09:13:42
FromStats_BitRate : 5292808
FromStats_Duration : 01:29:50.427000000
FromStats_FrameCount : 129241
FromStats_StreamSize : 3566312248Аудио #1
Идентификатор : 2
Формат : AC-3
Формат/Информация : Audio Coding 3
Расширение режима : CM (complete main)
Параметр Endianness формата : Big
Идентификатор кодека : A_AC3
Продолжительность : 1 ч. 29 м.
Вид битрейта : Постоянный
Битрейт : 192 Кбит/сек
Каналы : 2 канала
Расположение каналов : Front: L R
Частота : 48,0 КГц
Частота кадров : 31,250 кадров/сек (1536 spf)
Метод сжатия : С потерями
Размер потока : 123 Мбайт (3%)
Заголовок : DVO НТВ
Язык : Russian
Default : Да
Forced : Нет
Statistics Tags Issue : mkvmerge v7.7.0 ('Six Voices') 32bit built on Feb 28 2015 23:23:00 2015-12-17 15:36:21 / mkvmerge v5.3.0 ('I could have danced') built on Feb 9 2012 10:38:07 2016-08-09 09:13:42
FromStats_BitRate : 192000
FromStats_Duration : 01:29:51.328000000
FromStats_FrameCount : 168479
FromStats_StreamSize : 129391872Аудио #2
Идентификатор : 3
Формат : AC-3
Формат/Информация : Audio Coding 3
Расширение режима : CM (complete main)
Параметр Endianness формата : Big
Идентификатор кодека : A_AC3
Продолжительность : 1 ч. 29 м.
Вид битрейта : Постоянный
Битрейт : 192 Кбит/сек
Каналы : 2 канала
Расположение каналов : Front: L R
Частота : 48,0 КГц
Частота кадров : 31,250 кадров/сек (1536 spf)
Метод сжатия : С потерями
Размер потока : 123 Мбайт (3%)
Заголовок : MVO - «1+1»
Язык : Ukrainian
Default : Нет
Forced : Нет
Statistics Tags Issue : mkvmerge v7.7.0 ('Six Voices') 32bit built on Feb 28 2015 23:23:00 2015-12-17 15:36:21 / mkvmerge v5.3.0 ('I could have danced') built on Feb 9 2012 10:38:07 2016-08-09 09:13:42
FromStats_BitRate : 192000
FromStats_Duration : 01:29:50.464000000
FromStats_FrameCount : 168452
FromStats_StreamSize : 129371136

Скриншот c названием фильма

Скриншоты

-Трейлер
Яндекс.Метрика
Рейтинг@Mail.ru