Книга джунглей / The Jungle Book (2016) BDRip 1080p | D | Line

 

Создавать темы 07-Авг-2016 07:51

Производство: США, Fairview Entertainment, Moving Picture Company (MPC), Walt Disney Pictures
Жанр: Фэнтези, Драма, Приключения, Семейный
Режиссер: Джон Фавро
Продюсер: Джон Фавро, Бригхэм Тейлор, Молли Аллен
Актеры: Скарлетт Йоханссон, Идрис Эльба, Билл Мюррей, Бен Кингсли, Кристофер Уокен, Джанкарло Эспозито, Лупита Нионго Эмджей, Энтони, Нил Сетхи, Брэндон Хеншель
Описание:
Непримиримая борьба с опасным и внушающим страх тигром Шерханом вынуждает Маугли покинуть волчью стаю и отправиться в захватывающее путешествие. На пути мальчика ждут удивительные открытия и запоминающиеся встречи с пантерой Багирой, медведем Балу, питоном Каа и другими обитателями дремучих джунглей.

Возраст: 12+ (зрителям, достигшим 12 лет)
Рейтинг MPAA: PG (рекомендуется присутствие родителей)
Дата мировой премьеры: 7 апреля 2016
Дата премьеры в России: 14 апреля 2016, «WDSSPR» 3D
Продолжительность: 01:45:54
Качество видео: BDRip
Перевод: Дублированный (Чистый звук)
Вид субтитров: Вшитые отключаемые
Язык субтитров: Английский
Видео: AVC/H.264, 1920x1040 (1.85:1), 7696 kb/s, 23.976 fps
Аудио »1: 48 kHz, AC3 Dolby Digital, 2/0 (L,R) ch, ~448 kbps (Русский)
Аудио »2: 48 kHz, DTS, 3/2 (L,C,R,l,r) + LFE ch, ~1536 kbps (Английский)
Сэмпл

M/I

Общее
Уникальный идентификатор : 226620779066626809483425518589862047289 (0xAA7D930EA988B72F8583A718C5596E39)
Полное имя : D:РелизыКнига.джунглей.2016.BDRip.[1080p].NNMClub.mkv
Формат : Matroska
Версия формата : Version 2
Размер файла : 7,14 Гбайт
Продолжительность : 1 ч. 45 м.
Общий поток : 9655 Кбит/сек
Название фильма : Книга.джунглей.2016.BDRip.[1080p].NNMClub.to
Дата кодирования : UTC 2016-08-06 11:27:20
Программа кодирования : mkvmerge v8.3.0 ('Over the Horizon') 64bit
Библиотека кодирования : libebml v1.3.1 + libmatroska v1.4.2
Видео
Идентификатор : 1
Формат : AVC
Формат/Информация : Advanced Video Codec
Профиль формата : [email protected]
Параметр CABAC формата : Да
Параметр ReFrames формата : 4 кадра
Идентификатор кодека : V_MPEG4/ISO/AVC
Продолжительность : 1 ч. 45 м.
Битрейт : 7696 Кбит/сек
Ширина : 1920 пикселей
Высота : 1040 пикселей
Соотношение сторон : 1,85:1
Режим частоты кадров : Постоянный
Частота кадров : 23,976 (24000/1001) кадра/сек
Цветовое пространство : YUV
Субдискретизация насыщенности : 4:2:0
Битовая глубина : 8 бит
Тип развёртки : Прогрессивная
Бит/(Пиксели*Кадры) : 0.161
Размер потока : 5,69 Гбайт (80%)
Заголовок : Книга.джунглей.2016.BDRip.[1080p].NNMClub
Библиотека кодирования : x264 core 148 r2705 3f5ed56
Настройки программы : cabac=1 / ref=4 / deblock=1:-1:-1 / analyse=0x3:0x113 / me=umh / subme=7 / psy=1 / psy_rd=1.00:0.00 / mixed_ref=1 / me_range=16 / chroma_me=1 / trellis=1 / 8x8dct=1 / cqm=0 / deadzone=21,11 / fast_pskip=0 / chroma_qp_offset=-2 / threads=18 / lookahead_threads=3 / sliced_threads=0 / nr=0 / decimate=1 / interlaced=0 / bluray_compat=0 / constrained_intra=0 / bframes=3 / b_pyramid=2 / b_adapt=1 / b_bias=0 / direct=1 / weightb=1 / open_gop=0 / weightp=2 / keyint=250 / keyint_min=23 / scenecut=40 / intra_refresh=0 / rc_lookahead=40 / rc=crf / mbtree=1 / crf=20.0 / qcomp=0.60 / qpmin=0 / qpmax=69 / qpstep=4 / ip_ratio=1.40 / aq=1:1.00
Язык : English
Default : Да
Forced : Нет
Аудио #1
Идентификатор : 2
Формат : AC-3
Формат/Информация : Audio Coding 3
Расширение режима : CM (complete main)
Параметр Endianness формата : Big
Идентификатор кодека : A_AC3
Продолжительность : 1 ч. 45 м.
Вид битрейта : Постоянный
Битрейт : 448 Кбит/сек
Каналы : 2 канала
Расположение каналов : Front: L R
Частота : 48,0 КГц
Частота кадров : 31,250 кадров/сек (1536 spf)
Метод сжатия : С потерями
Размер потока : 339 Мбайт (5%)
Заголовок : Line
Язык : Russian
Default : Да
Forced : Да
Аудио #2
Идентификатор : 3
Формат : DTS
Формат/Информация : Digital Theater Systems
Режим : 16
Параметр Endianness формата : Big
Идентификатор кодека : A_DTS
Продолжительность : 1 ч. 45 м.
Вид битрейта : Постоянный
Битрейт : 1509 Кбит/сек
Каналы : 6 каналов
Расположение каналов : Front: L C R, Side: L R, LFE
Частота : 48,0 КГц
Частота кадров : 93,750 кадра/сек (512 spf)
Битовая глубина : 24 бит
Метод сжатия : С потерями
Размер потока : 1,12 Гбайт (16%)
Заголовок : Original
Язык : English
Default : Нет
Forced : Нет
Текст
Идентификатор : 4
Формат : UTF-8
Идентификатор кодека : S_TEXT/UTF8
Идентификатор кодека/Информация : UTF-8 Plain Text
Продолжительность : 1 ч. 44 м.
Битрейт : 44 бит/сек
Count of elements : 1218
Размер потока : 34,2 Кбайт (0%)
Заголовок : Full
Язык : English
Default : Нет
Forced : Нет
Меню
00:00:00.000 : en:00:00:00.000
00:00:48.215 : en:00:00:48.215
00:05:15.315 : en:00:05:15.315
00:09:02.459 : en:00:09:02.459
00:12:42.178 : en:00:12:42.178
00:16:34.452 : en:00:16:34.452
00:21:20.029 : en:00:21:20.029
00:27:15.133 : en:00:27:15.133
00:35:04.144 : en:00:35:04.144
00:43:21.724 : en:00:43:21.724
00:48:05.132 : en:00:48:05.132
00:53:29.248 : en:00:53:29.248
00:58:03.271 : en:00:58:03.271
01:05:46.442 : en:01:05:46.442
01:10:35.523 : en:01:10:35.523
01:17:01.325 : en:01:17:01.325
01:20:48.927 : en:01:20:48.927
01:24:46.540 : en:01:24:46.540
01:30:32.969 : en:01:30:32.969
01:35:53.206 : en:01:35:53.206

Скриншоты

Яндекс.Метрика
Рейтинг@Mail.ru