[ Сегодня на трекере фрилич! Идет свободное скачивание без начисления Download ]

Тарзан. Легенда / The Legend of Tarzan (Дэвид Йэтс / David Yates) [2016 г., боевик, приключения, WEBRip] Dub [звук с TS]

 

Создавать темы 06-Авг-2016 03:05

--Тарзан. Легенда / The Legend of Tarzan--«Human. Nature»-- Производство: Dark Horse Entertainment, Jerry Weintraub Productions, Riche Productions, Village Roadshow Pictures
Год выпуска: 2016 г.
Жанр: боевик, приключения
Продолжительность: 01:50:02--Мировая премьера: 27 июня 2016
Российская премьера: 30 июня 2016, «Каро-Премьер»--Перевод: Профессиональный (полное дублирование) [звук с TS]--Режиссер: Дэвид Йэтс / David Yates--В ролях: Александр Скарсгард, Марго Робби, Сэмюэл Л. Джексон, Кристоф Вальц, Элла Пернелл, Джимон Хонсу, Джим Бродбент, Каспер Крамп, Алисия Вудхаус, Саймон Расселл Бил--Описание: Приспособившийся к жизни в Лондоне Тарзан возвращается в свой бывший дом, в джунгли, чтобы разобраться в том, что происходит в лагере горнодобывающей компании.-- --Качество видео: WEBRip
Контейнер: AVI
Видео кодек: XviD
Аудио кодек: AC3
Видео: 720x304 (2.37:1), 24 fps, XviD build 50 ~1694 kbps avg, 0.32 bit/pixel
Аудио: 48 kHz, AC3 Dolby Digital, 2/0 (L,R) ch, ~192 kbpsCубтитры: Присутствуют местами вшитые корейские субтитры.

Media Info

Общее
Полное имя : H:\Torrent2\TrazaNCEGG.2O16.Dt.WEBRip.14OOMB.avi
Формат : AVI
Формат/Информация : Audio Video Interleave
Размер файла : 1,46 Гбайт
Продолжительность : 1 ч. 50 м.
Общий поток : 1896 Кбит/сек
Программа кодирования : VirtualDubMod 1.5.10.2 (build 2540/release)
Библиотека кодирования : VirtualDubMod build 2540/releaseВидео
Идентификатор : 0
Формат : MPEG-4 Visual
Профиль формата : Advanced [email protected]/* */
Параметр BVOP формата : 2
Параметр QPel формата : Нет
Параметр GMC формата : Без точки перехода
Параметр матрицы формата : Выборочная
Идентификатор кодека : XVID
Идентификатор кодека/Подсказка : XviD
Продолжительность : 1 ч. 50 м.
Битрейт : 1695 Кбит/сек
Ширина : 720 пикселей
Высота : 304 пикселя
Соотношение сторон : 2,35:1
Частота кадров : 24,000 кадра/сек
Цветовое пространство : YUV
Субдискретизация насыщенности : 4:2:0
Битовая глубина : 8 бит
Тип развёртки : Прогрессивная
Метод сжатия : С потерями
Бит/(Пиксели*Кадры) : 0.323
Размер потока : 1,30 Гбайт (89%)
Библиотека кодирования : XviD 1.2.1 (UTC 2008-12-04)Аудио
Идентификатор : 1
Формат : AC-3
Формат/Информация : Audio Coding 3
Расширение режима : CM (complete main)
Параметр Endianness формата : Big
Идентификатор кодека : 2000
Продолжительность : 1 ч. 50 м.
Вид битрейта : Постоянный
Битрейт : 192 Кбит/сек
Каналы : 2 канала
Расположение каналов : Front: L R
Частота : 48,0 КГц
Частота кадров : 31,250 кадров/сек (1536 spf)
Метод сжатия : С потерями
Размер потока : 151 Мбайт (10%)
Выравнивание : Разделение по промежуткам
Продолжительность промежутка : 42 мс. (1,00 видеокадр)
Время предзагрузки промежутка : 500 мс.

Скриншоты

ТрейлерВнимание присутствуют вставки голосовой и текстовой рекламы.
Яндекс.Метрика
Рейтинг@Mail.ru