После нашей эры / After Earth (М. Найт Шьямалан / M. Night Shyamalan) [2013 г., фантастика, приключения, боевик, BDRip-AVC] Dub [лицензия] + Original (Eng) + Sub (Eng) [Jolly Roger]

 

Создавать темы 02-Янв-2014 14:04

-После нашей эры / After Earth- Год выпуска: 2013 г.
Производство: США
Жанр: фантастика, приключения, боевик
Продолжительность: 01:40:03
Перевод: Профессиональный (полное дублирование) [лицензия]
Оригинальный аудиопоток: английский
Режиссер: М. Найт Шьямалан / M. Night Shyamalan
В ролях: Джейден Смит, Уилл Смит, Софи Оконедо, Зои Кравиц, Гленн Моршауэр, Кристофер Хивджу, Саша Дхаван, Крис Гир, Диего Клаттенхофф, Дэвид Денман
Описание: События разворачиваются через тысячу лет после катастрофы, вынудившей человечество покинуть Землю. Новым домом становится планета под названием Нова Прайм. Легендарный генерал Сайфер Рейдж возвращается с очередного боевого задания в семью, которая раньше обходилась без его родительского внимания, чтобы стать отцом своему 13-летнему сыну Китаю. Во время астероидной бури летательный аппарат с папой и сыном на борту терпит крушение, падая на незнакомую и опасную Землю. И пока Рейдж-старший на последнем дыхании лежит среди обломков своего корабля, сын должен пересечь враждебный ландшафт, чтобы запустить их спасательный маячок. Ни о чем большем юноша в своей жизни не мечтал: быть солдатом, как отец, — его заветное желание. Сегодня у него есть шанс проявить себя. Качество видео: BDRip-AVC
Контейнер: MKV
Видео кодек: H.264
Аудио кодек: AC3
Видео: MPEG4 Video (H264) 1040x432 23.976fps 1427 Kbps
Аудио: Dolby AC3 48000Hz 6ch 448 Kbps / Русский
Аудио 2: Dolby AC3 48000Hz 2ch 192 Kbps / Английский
Субтитры: английские (отключаемые)

Media Info

Общее
Уникальный идентификатор : 179568169372290057537910850064589316854 (0x8717924A3D0CB67BAC3CB0ED43E0E2F6)
Полное имя : D:\After.Earth.2013.H.264.BDRip-AVC.JRG.mkv
Формат : Matroska
Версия формата : Version 4 / Version 2
Размер файла : 1,45 Гбайт
Продолжительность : 1 ч. 40 м.
Общий поток : 2069 Кбит/сек
Название фильма : The Jolly Roger Release Group by Pirat.CA
Дата кодирования : UTC 2013-10-06 10:18:59
Программа кодирования : mkvmerge v6.3.0 ('You can't stop me!') built on Jun 28 2013 20:09:41
Библиотека кодирования : libebml v1.3.0 + libmatroska v1.4.0
Видео
Идентификатор : 1
Формат : AVC
Формат/Информация : Advanced Video Codec
Профиль формата : [email protected]
Параметр CABAC формата : Да
Параметр ReFrames формата : 7 кадров
Идентификатор кодека : V_MPEG4/ISO/AVC
Продолжительность : 1 ч. 40 м.
Битрейт : 1427 Кбит/сек
Ширина : 1040 пикселей
Высота : 432 пикселя
Соотношение сторон : 2,40:1
Режим частоты кадров : Постоянный
Частота кадров : 23,976 кадра/сек
Цветовое пространство : YUV
Субдискретизация насыщенности : 4:2:0
Битовая глубина : 8 бит
Тип развёртки : Прогрессивная
Бит/(Пиксели*Кадры) : 0.132
Размер потока : 993 Мбайт (67%)
Библиотека кодирования : x264 core 130 r2273 b3065e6
Настройки программы : cabac=1 / ref=7 / deblock=1:-1:-1 / analyse=0x3:0x133 / me=umh / subme=9 / psy=1 / psy_rd=1.00:0.15 / mixed_ref=1 / me_range=24 / chroma_me=1 / trellis=2 / 8x8dct=1 / cqm=0 / deadzone=21,11 / fast_pskip=0 / chroma_qp_offset=-3 / threads=3 / lookahead_threads=1 / sliced_threads=0 / nr=0 / decimate=1 / interlaced=0 / bluray_compat=0 / constrained_intra=0 / bframes=6 / b_pyramid=2 / b_adapt=2 / b_bias=0 / direct=3 / weightb=1 / open_gop=0 / weightp=2 / keyint=250 / keyint_min=23 / scenecut=40 / intra_refresh=0 / rc_lookahead=50 / rc=2pass / mbtree=1 / bitrate=1427 / ratetol=1.0 / qcomp=0.60 / qpmin=0 / qpmax=69 / qpstep=4 / cplxblur=20.0 / qblur=0.5 / ip_ratio=1.40 / aq=1:1.00
Default : Да
Forced : Нет
Аудио #1
Идентификатор : 2
Формат : AC-3
Формат/Информация : Audio Coding 3
Расширение режима : CM (complete main)
Параметр Endianness формата : Big
Идентификатор кодека : A_AC3
Продолжительность : 1 ч. 40 м.
Вид битрейта : Постоянный
Битрейт : 448 Кбит/сек
Каналы : 6 каналов
Расположение каналов : Front: L C R, Side: L R, LFE
Частота : 48,0 КГц
Битовая глубина : 16 бит
Метод сжатия : С потерями
Размер потока : 321 Мбайт (22%)
Язык : Russian
Default : Да
Forced : Нет
Аудио #2
Идентификатор : 3
Формат : AC-3
Формат/Информация : Audio Coding 3
Расширение режима : CM (complete main)
Параметр Endianness формата : Big
Идентификатор кодека : A_AC3
Продолжительность : 1 ч. 40 м.
Вид битрейта : Постоянный
Битрейт : 192 Кбит/сек
Каналы : 2 канала
Расположение каналов : Front: L R
Частота : 48,0 КГц
Битовая глубина : 16 бит
Метод сжатия : С потерями
Размер потока : 137 Мбайт (9%)
Язык : English
Default : Нет
Forced : Нет
Текст
Идентификатор : 4
Формат : UTF-8
Идентификатор кодека : S_TEXT/UTF8
Идентификатор кодека/Информация : UTF-8 Plain Text
Язык : English
Default : Нет
Forced : Нет

Скриншоты

Яндекс.Метрика
Рейтинг@Mail.ru