В Америке / In America (Джим Шеридан / Jim Sheridan) [2002 г., драма, DVDRip] MVO + Sub (Rus)

 

Создавать темы 19-Июл-2016 03:45

-В Америке / In America-- Производство: Ирландия, Великобритания, East of Harlem (UK) Ltd., Harlem Film Productions Ltd., Hell's Kitchen Films, Irish Film Industry, ...
Год выпуска: 2002 г.
Жанр: драма
Продолжительность: 01:41:04Мировая премьера: 12 сентября 2002
Дата выхода DVD: 18 мая 2004, «Гемини-Фильм»
Перевод: Профессиональный (многоголосый, закадровый) [R5]
Режиссер: Джим Шеридан / Jim Sheridan-В ролях: Пэдди Консидайн, Саманта Мортон, Сара Болджер, Эмма Болджер, Нил Джонс, Рэндолл Карлтон, Киаран Кронин, Джимон Хонсу, Хуан Карлос Эрнандес, Най Херон-Описание: Тысячи, миллионы людей стремятся в Соединенные Штаты Америки в поисках лучшей жизни, надеясь на исполнение своих самых заветных желаний. Семья театрального актера Джонни переезжает из Ирландии в Нью-Йорк, чтобы начать свою жизнь заново и избавиться от призраков прошлого. Почти мистический злой рок преследовал их, горе поселилось в их доме, и они были вынуждены бежать, чтобы спасти свою семью.Без денег и с имуществом в виде пары чемоданов, старой машины и видеокамеры, но полные оптимизма и веры в свои силы, Джонни и его жена Сара пытаются адаптироваться к жестоким и странным нравам Нью-Йорка.Их дочки — десятилетняя Кристи и маленькая Ариэль, наоборот, считают Америку волшебной страной, где живут чудесные люди. Как ни странно, именно вера дочерей в доброту людей и любовь ко всем окружающим помогут Джонни и Саре спасти семью от распада.-
Качество видео: DVDRip
Контейнер: AVI
Видео кодек: XviD
Аудио кодек: AC3
Видео: 720x384 (1.88:1), 25 fps, XviD build 50 ~2176 kbps avg, 0.32 bit/pixel
Аудио: 48 kHz, AC3 Dolby Digital, 3/2 (L,C,R,l,r) + LFE ch, ~448 kbps
Cубтитры: русские
Формат субтитров: softsub (SSA/ASS)
Доп. информация о субтитрах: внешние

Доп. информация

Сценарий фильма в значительной степени основан на автобиографических фактах жизни самого Джима Шеридана.
Фильм посвящен памяти Фрэнки Шеридана, брата режиссёра и сценариста Джима Шеридана. В одном из интервью режиссёр также заявил, что персонаж Фрэнки, сына Джонни и Сары, основан на его брате, умершем в десятилетнем возрасте.
На начальной стадии производства картины в качестве основных кандидатур на главные роли рассматривались Юэн МакГрегор и Кейт Уинслетт. Тогда рабочим названием проекта было «К востоку от Гарлема».
Сестер Кристи и Ариэль сыграли настоящие сестры Сара и Эмма Болджер. Сначала роль получила младшая Эмма, которая заявила, что режиссёр должен пригласить и её старшую сестру Сару. В течение долгого времени найти подходящую девочку не удавалось, и он таки пригласил Сару на прослушивания, после чего она и получила роль в картине.
Изначально режиссёр хотел, чтобы Кристи сыграла девочка постарше, которой было бы 12-13 лет.
На съёмках фильма девочки сами давали команду «мотор» и «снято» для каждой сцены. Режиссёр посчитал, что так они будут чувствовать себя комфортнее во время съёмочного процесса.
Сцены уличной ярмарки были сняты на улице Parnell Street в Дублине, Ирландия, ради чего на три дня перекрывалось всё движение. Помещение закрытой закусочной в эти дни использовалось для размещения и отдыха замерзающих на холоде участников массовки.

Награды

Оскар, 2004 год
Номинации (3):
Лучшая женская роль (Саманта Мортон)
Лучшая мужская роль второго плана (Джимон Хонсу)
Лучший оригинальный сценарий
Золотой глобус, 2004 год
Номинации (2):
Лучший сценарий
Лучшая песня — «Time Enough For Tears»
Премия Гильдии актеров, 2004 год
Номинации (1):
Лучший актерский состав

Рецензия

ГениальноВпервые посмотрел фильм несколько лет назад, на фестивале Британского кино. Смотрел на английском языке и испытал много эмоций. Сегодня пересмотрел уже в русском переводе — и еще раз испытал очень особенные, ни с чем не похожие чувства.Это один из тех гениальных фильмов, которому не суждено было стать популярным. И не важно какие причины — важно, чтобы мы поделились этим фильмом с другими и дали и им шанс прикоснуться к этому незабываемому творению.О чем же фильм? Как мне кажется, в первую очередь о Жертве. О жертвенной любви, если можно так выразиться. То, что совершил Матео — это чудесный, магический, но все же поступок. И его искренняя любовь к самой обычной семье — это воистину чудо.Рекомендуется всем тем, кто верит в чудеса, и тем, кто в них сомневается.10 из 10

Media Info

Общее
Полное имя : C:\герои 7\В Америке\V Amerike.[pirat.ca]\V Amerike.2002.DVDRip.[pirat.ca].avi
Формат : AVI
Формат/Информация : Audio Video Interleave
Размер файла : 1,86 Гбайт
Продолжительность : 1 ч. 41 м.
Общий поток : 2635 Кбит/сек
Название фильма : V Amerike.[pirat.ca]
Программа кодирования : VirtualDubMod 1.5.10.3 (build 2550/release)Видео
Идентификатор : 0
Формат : MPEG-4 Visual
Профиль формата : Advanced [email protected]/* */
Параметр BVOP формата : 1
Параметр QPel формата : Нет
Параметр GMC формата : Без точки перехода
Параметр матрицы формата : Default (MPEG)
Идентификатор кодека : XVID
Идентификатор кодека/Подсказка : XviD
Продолжительность : 1 ч. 41 м.
Битрейт : 2177 Кбит/сек
Ширина : 720 пикселей
Высота : 384 пикселя
Соотношение сторон : 1,85:1
Частота кадров : 25,000 кадров/сек
Цветовое пространство : YUV
Субдискретизация насыщенности : 4:2:0
Битовая глубина : 8 бит
Тип развёртки : Прогрессивная
Метод сжатия : С потерями
Бит/(Пиксели*Кадры) : 0.315
Размер потока : 1,54 Гбайт (83%)
Библиотека кодирования : XviD 1.2.1 (UTC 2008-12-04)Аудио
Идентификатор : 1
Формат : AC-3
Формат/Информация : Audio Coding 3
Расширение режима : CM (complete main)
Параметр Endianness формата : Big
Идентификатор кодека : 2000
Продолжительность : 1 ч. 41 м.
Вид битрейта : Постоянный
Битрейт : 448 Кбит/сек
Каналы : 6 каналов
Расположение каналов : Front: L C R, Side: L R, LFE
Частота : 48,0 КГц
Частота кадров : 31,250 кадров/сек (1536 spf)
Метод сжатия : С потерями
Размер потока : 324 Мбайт (17%)
Выравнивание : Разделение по промежуткам
Продолжительность промежутка : 40 мс. (1,00 видеокадр)
Время предзагрузки промежутка : 500 мс.

Скриншот c названием фильма

Скриншоты

-Трейлер
Яндекс.Метрика
Рейтинг@Mail.ru