[ Сегодня на трекере фрилич! Идет свободное скачивание без начисления Download ]

Ромео истекает кровью / Romeo Is Bleeding (Питер Медак / Peter Medak) [1993 г., Детектив, Боевик, Триллер, Драма, BDRip-AVC, 720p] MVO [НТВ+] + MVO + MVO [Петербург 5-й канал] + DVO [2+2/ICTV] + Sub (Rus)

 

Создавать темы 14-Июл-2016 03:38

-Ромео истекает кровью / Romeo Is Bleeding-- Производство: Великобритания, США, «Polygram Filmed Entertainment», «Working Title Films», ...
Год выпуска: 1993 г.
Жанр: Детектив, Боевик, Триллер, Драма
Продолжительность: 01:49:58Мировая премьера: 13 сентября 1993
Перевод: Профессиональный (многоголосый, закадровый)
Перевод 2: Профессиональный (многоголосый, закадровый) [Петербург 5-й канал]
Перевод 3: Профессиональный (многоголосый, закадровый) [НТВ+]
Перевод 4: Профессиональный (двухголосый, закадровый) [2+2/ICTV]
Режиссер: Питер Медак / Peter Medak-В ролях: Гэри Олдман, Лена Олин, Джульетт Льюис, Дэвид Провэл, Уилл Пэттон, Джин Кэнфилд, Ларри Джошуа, Майкл Уинкотт, Уильям Дафф-Гриффин, Джеймс Кромуэлл и др.-Описание: Офицер полиции Джек продает мафии информацию об охраняемых им людях, которые проходят по программе защиты свидетелей. Однажды он знакомится с безжалостным, коварным и обольстительным киллером по имени Мона.Мона принимает участие в убийстве полицейских, охранявших одного из свидетелей, подставленных Джеком. Но, несмотря ни на что, Джека неудержимо влечет к Моне. И он получает сразу три предложения. Одно от ФБР — охранять Мону, второе от гангстеров — убрать ее, ну а сама Мона делает Джеку третье, которое совершенно-
Качество видео: BDRip-AVC
Контейнер: MKV
Стандарт разрешения: 720p
Видео кодек: MPEG4 AVC
Аудио кодек: AC3
Видео: AVC/H.264, 1280х720, ~6558 kbps, 23,976 fps
Аудио: AC3, 2 ch, 384 kbps, 48,0 kHz
Аудио #2: AC3, 2 ch, 384 kbps, 48,0 kHz
Аудио #3: AC3, 2 ch, 384 kbps, 48,0 kHzCубтитры: русские
Формат субтитров: softsub (SRT)
Доп. информация о субтитрах: включаемые

Доп. информация

Крутой замес нынче в моде. Очень стильное, навороченное кино в духе Тарантино снял известный режиссер Питер Медак («Правящий класс», «Братья Крэй»). В этой жестокой балладе о запутавшемся авантюристе-полицейском и хитроумной гангстерше кровью истекает не только Джек (потрясающего актера Гэри Олдмэна ни с кем не спутаешь), но и здравый смысл. Жизнеподобие меньше всего заботит режиссера. Он создает страшную и красивую современную сказку в жанре психологического триллера. А шведка Лена Улин (лично исполнявшая все «каскадерские» трюки) обворожительна как всегда. Лучшие свои трюки она исполняет в постели. (М. Иванов)

Награды

Премия канала «MTV», 1994 год
Номинации (1):
Лучшая экшн-сцена

Рецензия

Я очень люблю замечательного яркого и талантливого актера Гари Олдмана, поэтому для меня этот фильм обязателен к просмотру. Тем более, что в нем интересный сюжет, который на первый взгляд банален- продажный коп и все вытекающие из этого приключения. но тем не мене сюжет раскрывается новыми интересными и неожиданными гранями, он не предсказуем от начала и до конца.Герой Гари — не чистый на руку коп Джек, которому хочется красивой жизни, богатства, развлечений. Он идет на риск, связавшись с мафией, и постепенно алчность затмевает разум и приводит к потере всего, что было в его жизни. Позже он пожалеет, ох, ка крепко пожалеет, что был недоволен своей жизнью, любимой женой, красивым домиком. Ведь всё было у человека. Поистине алчность — страшный порок, который разрушает личность.Очень яркая героиня-злодейка в этом фильме — русская неукротимая и хитрая киллерша Мона в исполнении Лены Улин. До этого она мне была хорошо знакома по роли забитой женщины из фильма «Шоколад», но здесь она совсем другая- роковая, красивая и жестокая. Безумно понравилась, она создала незабываемый образ.Также в фильме замечательная музыка — сексуальный и нервный саксофон. Понравилась мелодия на титрах, она как бы отражает суть всего фильма.В общем фильм классный, интересный и захватывающий. посмотреть советую. Гари Олдман один из лучших актеров современности, его игра всегда безупречна.10 из 10

Media Info

Общее
Уникальный идентификатор : 251007382082025023212301137428395471458 (0xBCD6436A57955260BA4850AB70463262)
Полное имя : F:\Ромео истекает кровью\Romeo istekaet krovju.1993.1080p.BDRip-AVC.[pirat.ca].mkv
Формат : Matroska
Версия формата : Version 2
Размер файла : 5,90 Гбайт
Продолжительность : 1 ч. 49 м.
Общий поток : 7686 Кбит/сек
Дата кодирования : UTC 2016-07-13 02:00:14
Программа кодирования : mkvmerge v5.3.0 ('I could have danced') built on Feb 9 2012 10:38:07
Библиотека кодирования : libebml v1.2.3 + libmatroska v1.3.0Видео
Идентификатор : 1
Формат : AVC
Формат/Информация : Advanced Video Codec
Профиль формата : [email protected]/* */
Параметр CABAC формата : Да
Параметр ReFrames формата : 8 кадров
Параметр GOP формата : M=1, N=12
Идентификатор кодека : V_MPEG4/ISO/AVC
Продолжительность : 1 ч. 49 м.
Битрейт : 6573 Кбит/сек
Ширина : 1280 пикселей
Высота : 720 пикселей
Соотношение сторон : 16:9
Режим частоты кадров : Постоянный
Частота кадров : 23,976 (24000/1001) кадра/сек
Цветовое пространство : YUV
Субдискретизация насыщенности : 4:2:0
Битовая глубина : 8 бит
Тип развёртки : Прогрессивная
Бит/(Пиксели*Кадры) : 0.297
Размер потока : 5,05 Гбайт (86%)
Заголовок : Ромео истекает кровью.1993
Язык : English
Default : Да
Forced : НетАудио #1
Идентификатор : 2
Формат : AC-3
Формат/Информация : Audio Coding 3
Расширение режима : CM (complete main)
Параметр Endianness формата : Big
Идентификатор кодека : A_AC3
Продолжительность : 1 ч. 49 м.
Вид битрейта : Постоянный
Битрейт : 384 Кбит/сек
Каналы : 2 канала
Расположение каналов : Front: L R
Частота : 48,0 КГц
Частота кадров : 31,250 кадров/сек (1536 spf)
Метод сжатия : С потерями
Размер потока : 302 Мбайт (5%)
Заголовок : АС3, 2 ch, 384 kbps - MVO
Язык : Russian
Default : Да
Forced : НетАудио #2
Идентификатор : 3
Формат : AC-3
Формат/Информация : Audio Coding 3
Расширение режима : CM (complete main)
Параметр Endianness формата : Big
Идентификатор кодека : A_AC3
Продолжительность : 1 ч. 49 м.
Вид битрейта : Постоянный
Битрейт : 192 Кбит/сек
Каналы : 2 канала
Расположение каналов : Front: L R
Частота : 48,0 КГц
Частота кадров : 31,250 кадров/сек (1536 spf)
Метод сжатия : С потерями
Размер потока : 151 Мбайт (2%)
Заголовок : АС3, 2 ch, 192 kbps - MVO
Язык : Russian
Default : Нет
Forced : НетАудио #3
Идентификатор : 4
Формат : AC-3
Формат/Информация : Audio Coding 3
Расширение режима : CM (complete main)
Параметр Endianness формата : Big
Идентификатор кодека : A_AC3
Продолжительность : 1 ч. 49 м.
Вид битрейта : Постоянный
Битрейт : 192 Кбит/сек
Каналы : 2 канала
Расположение каналов : Front: L R
Частота : 48,0 КГц
Частота кадров : 31,250 кадров/сек (1536 spf)
Метод сжатия : С потерями
Размер потока : 151 Мбайт (2%)
Заголовок : АС3, 2 ch, 192 kbps - MVO (Петербург 5-й канал)
Язык : Russian
Default : Нет
Forced : НетАудио #4
Идентификатор : 5
Формат : AC-3
Формат/Информация : Audio Coding 3
Расширение режима : CM (complete main)
Параметр Endianness формата : Big
Идентификатор кодека : A_AC3
Продолжительность : 1 ч. 49 м.
Вид битрейта : Постоянный
Битрейт : 192 Кбит/сек
Каналы : 2 канала
Расположение каналов : Front: L R
Частота : 48,0 КГц
Частота кадров : 31,250 кадров/сек (1536 spf)
Метод сжатия : С потерями
Размер потока : 151 Мбайт (2%)
Заголовок : АС3, 2 ch, 192 kbps - DVO (2+2/ICTV)
Язык : Ukrainian
Default : Нет
Forced : НетТекст
Идентификатор : 6
Формат : UTF-8
Идентификатор кодека : S_TEXT/UTF8
Идентификатор кодека/Информация : UTF-8 Plain Text
Заголовок : Alex Raynor
Язык : Russian
Default : Нет
Forced : Нет

Скриншот c названием фильма

Скриншоты

-Трейлер
Яндекс.Метрика
Рейтинг@Mail.ru