Мститель / Barood (Прамод Чакраворти / Pramod Chakravorty) [1976 г., боевик, триллер, драма, мелодрама, криминал, VHSRip] Dub

 

Создавать темы 13-Июл-2016 04:50

-Мститель / Barood-- Производство: Индия, Jugnu Enterprises
Год выпуска: 1976 г.
Жанр: боевик, триллер, драма, мелодрама, криминал
Продолжительность: 01:58:03Российская премьера: Январь 1978 СССР
Перевод: Профессиональный (полное дублирование) [Киностудия имени Александра Довженко]
Режиссер: Прамод Чакраворти / Pramod Chakravorty-В ролях: Ашок Кумар, Риши Капур, Шома Ананд, Прем Чопра, Мадан Пури, Суджит Кумар, Манхоман, Радж Мехра, Аджит-Описание: На глазах у шестилетнего мальчика бандиты убивают его отца. Оказывается полицейский инспектор Саксена разоблачил банду контрабандистов и бандиты отомстили ему. Навсегда запомнил лица убийц маленький Ануп Саксена. Прошло 14 лет. Мысль о мести не покидала Анупа. Он разыскал убийц. Из четверых убиты уже трое. Остается четвертый — главарь банды Бакши. Ануп похищает его дочь Симу. Но Ануп и Сима полюбили друг друга. Теперь Бакши не только враг, но и отец любимой. Ануп в смятении. Неожиданно Бакши погибает в автомобильной катастрофе, преследуя Анупа. Любовь Симы оказывается сильнее чувства мести…-
Качество видео: VHSRip
Контейнер: MP4
Видео кодек: MPEG2
Аудио кодек: M4A
Видео: PAL 4:3 (720x576) 25.000 fps, MPEG-2 Video, ~ 4655 Kbps
Аудио: Русский, 48.0 KHz, MPEG Audio Version 1, 2 ch, 224 Kbps
Cубтитры: отсутствуют

Доп. информация

Фильм дублирован на киностудии имени Александра Довженко. Режиссер дубляжа: И. Левченко, звукооператор Р. Бисноватая, автор русского синхронного текста Д. Эсенфельд, редактор Т. Иваненко. Роли дублируют: В. Дорошенко, В. Гришокина, Н. Рушковский, А. Васильев, В. Пупков, А. Усенко, С. Свечников, А. Переверзев. В начале отсутствует эпизод, где Дургапрасаду Саксене вручают орден. От остальных релизов этого фильма в виде советской прокатной копии данный отличается более насыщенными цветами и лучшей яркостью.

Рецензия

Не такая уж и страшная месть получилась у главного героя, даже где-то выгодная — ведь главная героиня все-таки влюбилась в него, несмотря на то, что он ее похитил, держал взаперти и даже приложил хорошенько о днище лодки — любя, наверное. Местами фильм просто поражал своей несуразностью, местами было вполне смотрибельно. Фильм хорош тем, что там снимается молодой Риши Капур, то есть в том возрасте, когда ему можно было сниматься в таких ролях — где-то годов до 80-х. Тут он был даже симпатичен. Эмоций особых не показал, но то, что за папку мстил — это похвально. И еще на мотоцикле залихватски ездил — то за негодяями, то от них, то от полиции или еще от кого. Молодец Риши. Количество прыжков на этом виде транспорта впечатляло. Даже если больше половины сделал каскадер, все равно Риши молодец.Начинается все с того, что офицера полиции убивают контрабандисты на глазах у его маленького сына Анупа. Наверное, потом сто раз пожалели, что мальчишку в живых оставили. Ануп вырос и выносил в душе план по отмщению за смерть отца. И в один прекрасный момент начинает мочить гадов. Трех замочил, а за четвертым поехал в Испанию. С этим четвертым вышла загвоздка — Ануп хотел действовать на него через дочку, но сперва не разобрался и начал морочить голову его секретарше (Рина Рой). Закрутил с ней любовь, а она ему все и разболтала — что мол дочка бандитина учится в Париже. Ануп рванул туда, похитил дочу и как водится, влюбился в нее. И она в него. Хотя я бы такому челу надавала бы хороших, а она туда же. Еще и ждала его с тюрьмы. Это уж вообще никуда. Решила, что он благородный. Ну-ну. Так… что-нибудь из плюсов написать. Из плюсов: фильм в дубляже, причем в качественном. На кассетах я его никогда не видела, на дисках тоже, поэтому современный перевод не коснулся сего произведения. То есть не испоганил его. Песни… Песни были так себе. Да, приятным сюрпризом было появление Хемы Малини и ее мужа Дхармендры в одном из эпизодов.Из минусов: плохое качество изображения. Девушки слишком толстые (или я придираюсь?). Неправдоподобное поведение профессора криминалистики (Ашок Кумар, хотя обычно мне этот актер очень нравится), чего стоят одни его прыжки и драки постановочные с учениками его школы криминалистики. Местами было очень нудно. Местами нормально. Лучше всего получился Риши на мотоцикле. Риши мститель как-то не очень.Моя оценка: 8 из 10.

Media Info

Oбщее
Полное имя : F:\Мститель\Mstitel.1976.[pirat.ca].mpg
Формат : MPEG-PS
Размер файла : 4,11 Гбайт
Продолжительность : 1 ч. 58 м.
Режим общего битрейта : Переменный
Общий поток : 4986 Кбит/секВидео
Идентификатор : 224 (0xE0)
Формат : MPEG Video
Версия формата : Version 2
Профиль формата : [email protected]/* */
Параметр BVOP формата : Да
Параметр матрицы формата : Выборочная
Параметр GOP формата : M=3, N=12
Структура изображения : Frame
Продолжительность : 1 ч. 58 м.
Вид битрейта : Переменный
Битрейт : 4655 Кбит/сек
Ширина : 720 пикселей
Высота : 576 пикселей
Соотношение сторон : 4:3
Частота кадров : 25,000 кадров/сек
Стандарт вещания : PAL
Цветовое пространство : YUV
Субдискретизация насыщенности : 4:2:0
Битовая глубина : 8 бит
Тип развёртки : Чересстрочная
Порядок развёртки : Верхнее поле первое
Метод сжатия : С потерями
Бит/(Пиксели*Кадры) : 0.449
Временной код первого кадра : 00:00:00:00
Оригинал временного кода : Group of pictures header
GOP, открыто/закрыто : Открыто
GOP, открыто/закрыто на первом кадре : Закрыто
Размер потока : 3,85 Гбайт (94%)
Основные цвета : BT.601 PAL
Характеристики трансфера : BT.470 System B, BT.470 System G
Коэффициенты матрицы : BT.601Аудио
Идентификатор : 192 (0xC0)
Формат : MPEG Audio
Версия формата : Version 1
Профиль формата : Layer 2
Продолжительность : 1 ч. 58 м.
Вид битрейта : Постоянный
Битрейт : 224 Кбит/сек
Каналы : 2 канала
Частота : 48,0 КГц
Метод сжатия : С потерями
Размер потока : 189 Мбайт (4%)Меню

Скриншот c названием фильма

Скриншоты

-Трейлер
Яндекс.Метрика
Рейтинг@Mail.ru