Кодер / Cypher (Винченцо Натали / Vincenzo Natali) [2002 г., фантастика, триллер, детектив, BDRip] DVO [Лицензия R5]

 

Создавать темы 12-Июл-2016 04:51

-Кодер / Cypher-- Производство: США, Канада, Gaylord Films, Headspace, Miramax Films, Pandora Cinema
Год выпуска: 2002 г.
Жанр: фантастика, триллер, детектив
Продолжительность: 01:35:39Мировая премьера: 7 октября 2002
Перевод: Профессиональный (двухголосый, закадровый) [Лицензия R5]
Режиссер: Винченцо Натали / Vincenzo Natali-В ролях: Джереми Нортэм, Люси Лью, Найджел Беннетт, Тимоти Уэббер, Дэвид Хьюлетт, Кари Матчетт, Кристина Николл, Джозеф Скорен, Стивен Браун, Арнольд Пиннок-Описание: Морган Салливан, уставший от занудной жизни и нелюбимой жены, охотно соглашается заниматься шпионажем для могущественной корпорации «Диджикорп». Он получает новое имя и простое задание с помощью секретного устройства передавать выступления конкурентов на конвенциях по всей стране. Несмотря на начавшиеся мигрени и странную боль в затылке, Морган наслаждается новой, тайной жизнью, но случайная встреча с загадочной Ритой вселяет в него страх и подозрения. По словам Риты, скучные собрания всего лишь ширма для зловещих операций «Диджикорпа», превращающего своих «шпионов» в послушных марионеток, утративших свое «я». Она делает ему укол и просит на следующей конвенции никак не реагировать на то, что он там увидит…-
Качество видео: BDRip
Контейнер: AVI
Видео кодек: XviD
Аудио кодек: AC3
Видео: 704x400 (1.76:1), 23.976 fps, XviD build 64 ~1721 kbps avg, 0.26 bit/pixel
Аудио: 48 kHz, AC3 Dolby Digital, 3/2 (L,C,R,l,r) + LFE ch, ~448 kbps
Cубтитры: отсутствуют

Рецензия

О том, как «офисный», затюканый человек преобразился к концу фильма. Где-то там, внутри, человек принимает условия жизни, законы существования. Быть недовольным и жалким, или уверенным жизнерадостным.Особо отмечу в фильме музыку.Фильм с «быстрым» смыслом, и не многословный.10 из 10Замечательный фильм от талантливого Натали. Приятное смешение из триллера, детектива и немного фантастики, но вполне реалистичной.Сюжет когда первые минут двадцать ты сидишь в полной уверенности «а-а-а ну понятно что будет дальше», а оказывается все совсем иначе, еще минут через десять приходит мысль» ну все, вот теперь точно понятно что к чему» и опять мимо. Кончается фильм вообще по 10-тому, но очень красиво и «вкусно».Натали радует тем, что при небольших бюджетах снимает в разы лучше многомиллионных голливудских блокираторов, поэтому пусть вас не смущает в некоторых отзывах «сериальное качество», «нехватка актеров», все продуманно, все ровно так как и должно быть, да местами медитативно, но если хочется экшена вам на «Адреналин», «Крепкий орешек» или чем там нынче пестрят афиши широкого проката.И вообще фильм совсем про другое, чем может показаться в начале… про что — смотрите!10 из 10

Media Info

Общее
Полное имя : J:\Кодер\Cypher.2002.BDRip.[pirat.ca].avi
Формат : AVI
Формат/Информация : Audio Video Interleave
Размер файла : 1,46 Гбайт
Продолжительность : 1 ч. 35 м.
Общий поток : 2179 Кбит/сек
Название фильма : Кодер / Cypher (2002)
Программа кодирования : VirtualDubMod 1.5.10.2 (build 2540/release)Видео
Идентификатор : 0
Формат : MPEG-4 Visual
Профиль формата : Advanced [email protected]/* */
Параметр BVOP формата : 1
Параметр QPel формата : Нет
Параметр GMC формата : Без точки перехода
Параметр матрицы формата : Выборочная
Идентификатор кодека : XVID
Идентификатор кодека/Подсказка : XviD
Продолжительность : 1 ч. 35 м.
Битрейт : 1721 Кбит/сек
Ширина : 704 пикселя
Высота : 400 пикселей
Соотношение сторон : 16:9
Частота кадров : 23,976 (23976/1000) кадра/сек
Цветовое пространство : YUV
Субдискретизация насыщенности : 4:2:0
Битовая глубина : 8 бит
Тип развёртки : Прогрессивная
Метод сжатия : С потерями
Бит/(Пиксели*Кадры) : 0.255
Размер потока : 1,15 Гбайт (79%)
Библиотека кодирования : XviD 64Аудио
Идентификатор : 1
Формат : AC-3
Формат/Информация : Audio Coding 3
Расширение режима : CM (complete main)
Параметр Endianness формата : Big
Идентификатор кодека : 2000
Продолжительность : 1 ч. 35 м.
Вид битрейта : Постоянный
Битрейт : 448 Кбит/сек
Каналы : 6 каналов
Расположение каналов : Front: L C R, Side: L R, LFE
Частота : 48,0 КГц
Частота кадров : 31,250 кадров/сек (1536 spf)
Метод сжатия : С потерями
Размер потока : 307 Мбайт (21%)
Выравнивание : Разделение по промежуткам
Продолжительность промежутка : 42 мс. (1,00 видеокадр)
Время предзагрузки промежутка : 500 мс.

Скриншот c названием фильма

Скриншоты

-Трейлер
Яндекс.Метрика
Рейтинг@Mail.ru