Лондон 1920 / 1920 London (Дхармендра Суреш Десаи / Dharmendra Suresh Desai) [2016 г., Ужасы, WEB-DL, 720p] DVO + MVO Sub (Rus) + Original (Heb)

 

Создавать темы 11-Июл-2016 05:03

-Лондон 1920 / 1920 London-- Производство: Индия
Год выпуска: 2016 г.
Жанр: Ужасы
Продолжительность: 01:58:36Мировая премьера: 6 мая 2016
Перевод: Любительский (двухголосый, закадровый) [Давид Петросян и Маргарита Сахно]
Перевод 2: Любительский (многоголосый, закадровый) [ICG]
Оригинальный аудиопоток: ивритРежиссер: Дхармендра Суреш Десаи / Dharmendra Suresh Desai-В ролях: Мира Чопра, Шарман Джоши, Вишал Карвал ...-Описание: В молодого мужа прекрасной Шиванги вселяется нечто потустороннее. Девушка готова пойти на что угодно, чтобы спасти любимого. Даже прибегнуть к помощи экзорциста.-
Качество видео: WEB-DL
Контейнер: MKV
Стандарт разрешения: 720p
Видео кодек: MPEG4 AVC
Аудио кодек: AC3
Видео: AVC, 1280x544 (2.35:1), 23.976 fps, 3 177 Kbps (0.190 bit/pixel)
Аудио: AC-3, 48.0 KHz, 6 ch, 448 Kbps, CBR |Rus (Honey&Haseena)
Аудио #2: AC-3, 48.0 KHz, 6 ch, 448 Kbps, CBR |Rus (ICG)
Аудио #3: AC-3, 48.0 KHz, 6 ch, 448 Kbps, CBR |HindiCубтитры: русские
Формат субтитров: softsub (SRT)

Доп. информация

Русские (на песни), Русские (полные), Английские (полные)

Media Info

Общее
Уникальный идентификатор : 197548670235712676529264889234825634974 (0x949E7D6D3CD4E0B7A2441BB40EBF649E)
Полное имя : \London.1920.2016.WEB-DLRip.720p.[pirat.ca].mkv
Формат : Matroska
Версия формата : Version 4 / Version 2
Размер файла : 3,75 Гбайт
Продолжительность : 1 ч. 58 м.
Общий поток : 4521 Кбит/сек
Дата кодирования : UTC 2016-07-10 13:32:55
Программа кодирования : mkvmerge v8.3.0 ('Over the Horizon') 64bit
Библиотека кодирования : libebml v1.3.1 + libmatroska v1.4.2Видео
Идентификатор : 1
Формат : AVC
Формат/Информация : Advanced Video Codec
Профиль формата : [email protected]/* */
Параметр CABAC формата : Да
Параметр ReFrames формата : 8 кадров
Идентификатор кодека : V_MPEG4/ISO/AVC
Продолжительность : 1 ч. 58 м.
Битрейт : 3177 Кбит/сек
Ширина : 1280 пикселей
Высота : 544 пикселя
Соотношение сторон : 2,35:1
Режим частоты кадров : Постоянный
Частота кадров : 23,976 (24000/1001) кадра/сек
Цветовое пространство : YUV
Субдискретизация насыщенности : 4:2:0
Битовая глубина : 8 бит
Тип развёртки : Прогрессивная
Бит/(Пиксели*Кадры) : 0.190
Размер потока : 2,63 Гбайт (70%)
Библиотека кодирования : x264 core 148 r2692 64f4e24
Настройки программы : cabac=1 / ref=8 / deblock=1:0:0 / analyse=0x3:0x133 / me=umh / subme=9 / psy=1 / psy_rd=1.00:0.00 / mixed_ref=1 / me_range=16 / chroma_me=1 / trellis=2 / 8x8dct=1 / cqm=0 / deadzone=21,11 / fast_pskip=0 / chroma_qp_offset=-2 / threads=12 / lookahead_threads=1 / sliced_threads=0 / nr=500 / decimate=1 / interlaced=0 / bluray_compat=0 / constrained_intra=0 / bframes=3 / b_pyramid=2 / b_adapt=2 / b_bias=0 / direct=3 / weightb=1 / open_gop=0 / weightp=2 / keyint=250 / keyint_min=23 / scenecut=40 / intra_refresh=0 / rc_lookahead=60 / rc=2pass / mbtree=1 / bitrate=3177 / ratetol=1.0 / qcomp=0.60 / qpmin=0 / qpmax=69 / qpstep=4 / cplxblur=20.0 / qblur=0.5 / ip_ratio=1.40 / aq=1:1.00
Default : Да
Forced : НетАудио #1
Идентификатор : 2
Формат : AC-3
Формат/Информация : Audio Coding 3
Расширение режима : CM (complete main)
Параметр Endianness формата : Big
Идентификатор кодека : A_AC3
Продолжительность : 1 ч. 58 м.
Вид битрейта : Постоянный
Битрейт : 448 Кбит/сек
Каналы : 6 каналов
Расположение каналов : Front: L C R, Side: L R, LFE
Частота : 48,0 КГц
Частота кадров : 31,250 кадров/сек (1536 spf)
Метод сжатия : С потерями
Размер потока : 380 Мбайт (10%)
Заголовок : Rus (Honey&Haseena)
Default : Да
Forced : НетАудио #2
Идентификатор : 3
Формат : AC-3
Формат/Информация : Audio Coding 3
Расширение режима : CM (complete main)
Параметр Endianness формата : Big
Идентификатор кодека : A_AC3
Продолжительность : 1 ч. 58 м.
Вид битрейта : Постоянный
Битрейт : 448 Кбит/сек
Каналы : 6 каналов
Расположение каналов : Front: L C R, Side: L R, LFE
Частота : 48,0 КГц
Частота кадров : 31,250 кадров/сек (1536 spf)
Метод сжатия : С потерями
Размер потока : 380 Мбайт (10%)
Заголовок : Rus (ICG)
Default : Нет
Forced : НетАудио #3
Идентификатор : 4
Формат : AC-3
Формат/Информация : Audio Coding 3
Расширение режима : CM (complete main)
Параметр Endianness формата : Big
Идентификатор кодека : A_AC3
Продолжительность : 1 ч. 58 м.
Вид битрейта : Постоянный
Битрейт : 448 Кбит/сек
Каналы : 6 каналов
Расположение каналов : Front: L C R, Side: L R, LFE
Частота : 48,0 КГц
Частота кадров : 31,250 кадров/сек (1536 spf)
Метод сжатия : С потерями
Задержка видео : 15 мс.
Размер потока : 380 Мбайт (10%)
Заголовок : Hindi (Original)
Default : Нет
Forced : НетТекст #1
Идентификатор : 5
Формат : UTF-8
Идентификатор кодека : S_TEXT/UTF8
Идентификатор кодека/Информация : UTF-8 Plain Text
Продолжительность : 1 ч. 54 м.
Битрейт : 6 бит/сек
Count of elements : 87
Размер потока : 5,41 Кбайт (0%)
Заголовок : Rus Forced
Default : Да
Forced : НетТекст #2
Идентификатор : 6
Формат : UTF-8
Идентификатор кодека : S_TEXT/UTF8
Идентификатор кодека/Информация : UTF-8 Plain Text
Продолжительность : 1 ч. 58 м.
Битрейт : 57 бит/сек
Count of elements : 944
Размер потока : 49,6 Кбайт (0%)
Заголовок : Rus Full
Default : Нет
Forced : НетТекст #3
Идентификатор : 7
Формат : UTF-8
Идентификатор кодека : S_TEXT/UTF8
Идентификатор кодека/Информация : UTF-8 Plain Text
Продолжительность : 1 ч. 56 м.
Битрейт : 34 бит/сек
Count of elements : 924
Размер потока : 29,9 Кбайт (0%)
Заголовок : Eng Full
Default : Нет
Forced : Нет

Скриншот c названием фильма

Скриншоты

-Трейлер
Яндекс.Метрика
Рейтинг@Mail.ru