Бойфренд из будущего / About Time (Ричард Кёртис / Richard Curtis) [2013 г., фантастика, драма, комедия, HDRip] Dub [Лицензия]

 

Создавать темы 01-Янв-2014 21:32

--Бойфренд из будущего / About Time--«A new funny film about love. With a bit of time travel»-- Производство: Великобритания, Translux, Working Title Films
Год выпуска: 2013 г.
Жанр: фантастика, драма, комедия
Продолжительность: 02:03:22--Мировая премьера: 27 июня 2013
Премьера (РФ): 10 октября 2013, «UPI»
Релиз на DVD: 30 января 2014, «Двадцатый Век Фокс СНГ»
Релиз на Blu-Ray: 30 января 2014, «Двадцатый Век Фокс СНГ»--Перевод: Профессиональный (полное дублирование) [Лицензия]--Режиссер: Ричард Кёртис / Richard Curtis--В ролях: Домналл Глисон, Рэйчел МакАдамс, Билл Найи, Том Холландер, Марго Робби, Нив Гачев, Ванесса Кирби, Линдсэй Дункан, Лиза Айкхорн, Катрин Стэдмен--Описание: В возрасте 21 года Тим Лейк обнаруживает, что он может путешествовать во времени. В ночь после очередного неприятного Нового года отец Тима рассказывает ему, что мужчины в его семье всегда имели способность путешествовать во времени. Тим не может изменить историю, но он может изменить то, что происходит или происходило в его собственной жизни.--- --Качество видео: HDRip
Контейнер: AVI
Видео кодек: XviD
Аудио кодек: AC3
Видео: 720x304 (2.37:1), 23.976 fps, XviD build 50 ~1925 kbps avg, 0.37 bit/pixel
Аудио: 48 kHz, AC3 Dolby Digital, 3/2 (L,C,R,l,r) + LFE ch, ~448 kbps
Cубтитры: отсутствуют
-

Media Info

Общее
Полное имя : H:\Torrent2\BoyfrEnd.1Z.BuduscheG0.2013.D.HDRip.2100Mb.avi
Формат : AVI
Формат/Информация : Audio Video Interleave
Профиль формата : OpenDML
Размер файла : 2,05 Гбайт
Продолжительность : 2 ч. 3 м.
Общий поток : 2381 Кбит/сек
Программа кодирования : VirtualDubMod 1.5.10.3 | www.virtualdub-fr.org || (build 2550/release)
Библиотека кодирования : VirtualDubMod build 2550/release
Видео
Идентификатор : 0
Формат : MPEG-4 Visual
Профиль формата : Advanced [email protected]
Параметр BVOP формата : 2
Параметр QPel формата : Нет
Параметр GMC формата : Без точки перехода
Параметр матрицы формата : Выборочная
Идентификатор кодека : XVID
Идентификатор кодека/Подсказка : XviD
Продолжительность : 2 ч. 3 м.
Битрейт : 1920 Кбит/сек
Ширина : 720 пикселей
Высота : 304 пикселя
Соотношение сторон : 2,35:1
Частота кадров : 23,976 кадра/сек
Цветовое пространство : YUV
Субдискретизация насыщенности : 4:2:0
Битовая глубина : 8 бит
Тип развёртки : Прогрессивная
Метод сжатия : С потерями
Бит/(Пиксели*Кадры) : 0.366
Размер потока : 1,65 Гбайт (81%)
Библиотека кодирования : XviD 1.2.1 (UTC 2008-12-04)
Аудио
Идентификатор : 1
Формат : AC-3
Формат/Информация : Audio Coding 3
Расширение режима : CM (complete main)
Параметр Endianness формата : Big
Идентификатор кодека : 2000
Продолжительность : 2 ч. 3 м.
Вид битрейта : Постоянный
Битрейт : 448 Кбит/сек
Каналы : 6 каналов
Расположение каналов : Front: L C R, Side: L R, LFE
Частота : 48,0 КГц
Битовая глубина : 16 бит
Метод сжатия : С потерями
Размер потока : 395 Мбайт (19%)
Выравнивание : Разделение по промежуткам
Продолжительность промежутка : 42 мс. (1,00 видеокадр)
Время предзагрузки промежутка : 500 мс.

Скриншоты

Трейлер
Яндекс.Метрика
Рейтинг@Mail.ru