Варкрафт / Warcraft (Дункан Джонс / Duncan Jones) [2016 г., фэнтези, боевик, приключения, WEB-DLRip, 1080p] Dub + Original (Eng)

 

Создавать темы 09-Июл-2016 03:33

-Варкрафт / Warcraft-- Производство: США / Universal Pictures, Legendary Pictures, Blizzard Entertainment, Atlas Entertainment
Год выпуска: 2016 г.
Жанр: фэнтези, боевик, приключения
Продолжительность: 02:03:47Мировая премьера: 24 мая 2016
Российская премьера: 26 мая 2016
Перевод: Профессиональный (полное дублирование) [Чистый звук]
Оригинальный аудиопоток: английскийРежиссер: Дункан Джонс / Duncan Jones-В ролях: Трэвис Фиммел, Пола Пэттон, Бен Фостер, Доминик Купер, Тоби Кеббелл, Бен Шнетцер, Роберт Казински, Клэнси Браун-Описание: Веками магия и неприступные стены защищали людей от любых напастей. Но древнее зло, побежденное и забытое тысячелетия назад, пробудилось. В самом сердце королевства открылся темный портал, и раса невиданных существ наводнила земли Азерота. Так начались события, призванные навсегда изменить судьбу этого мира.-
Качество видео: WEB-DLRip
Контейнер: MKV
Стандарт разрешения: 1080p
Видео кодек: MPEG4 AVC
Аудио кодек: AC3
Видео: 1920x800 (2.40:1), 29.970 fps, MPEG-4 AVC 5000 kbps
Аудио: 48.0 kHz, AC3 Dolby Digital, 2/0 (L,R) ch, 256 kbps | RUS
Аудио #2: 44.1 kHz, AC3 Dolby Digital, 2/0 (L,R) ch, 256 kbps | ENG
Cубтитры: Корейские
Формат субтитров: hardsub (неотключаемые)

Media Info

Общее
Уникальный идентификатор : 181673676897159001517087474133753965214 (0x88AD13D36408D0A782601304B004AA9E)
Полное имя : \WarСraft.2O16.D.WEBRip.1080p.[pirat.ca].mkv
Формат : Matroska
Версия формата : Version 2
Размер файла : 4,63 Гбайт
Продолжительность : 2 ч. 1 м.
Общий поток : 5471 Кбит/сек
Дата кодирования : UTC 2016-07-08 08:22:06
Программа кодирования : mkvmerge v8.3.0 ('Over the Horizon') 64bit
Библиотека кодирования : libebml v1.3.1 + libmatroska v1.4.2Видео
Идентификатор : 1
Формат : AVC
Формат/Информация : Advanced Video Codec
Профиль формата : [email protected]/* */
Параметр CABAC формата : Да
Параметр ReFrames формата : 8 кадров
Идентификатор кодека : V_MPEG4/ISO/AVC
Продолжительность : 2 ч. 1 м.
Битрейт : 5000 Кбит/сек
Ширина : 1920 пикселей
Высота : 800 пикселей
Соотношение сторон : 2,40:1
Режим частоты кадров : Постоянный
Частота кадров : 29,970 (29970/1000) кадров/сек
Цветовое пространство : YUV
Субдискретизация насыщенности : 4:2:0
Битовая глубина : 8 бит
Тип развёртки : Прогрессивная
Бит/(Пиксели*Кадры) : 0.109
Размер потока : 4,19 Гбайт (91%)
Библиотека кодирования : x264 core 119
Настройки программы : cabac=1 / ref=8 / deblock=1:0:0 / analyse=0x3:0x133 / me=umh / subme=9 / psy=1 / psy_rd=1.00:0.00 / mixed_ref=1 / me_range=16 / chroma_me=1 / trellis=2 / 8x8dct=1 / cqm=0 / deadzone=21,11 / fast_pskip=1 / chroma_qp_offset=-2 / threads=8 / sliced_threads=0 / nr=0 / decimate=1 / interlaced=0 / bluray_compat=0 / constrained_intra=0 / bframes=3 / b_pyramid=2 / b_adapt=2 / b_bias=0 / direct=3 / weightb=1 / open_gop=0 / weightp=2 / keyint=250 / keyint_min=25 / scenecut=40 / intra_refresh=0 / rc_lookahead=60 / rc=abr / mbtree=1 / bitrate=5000 / ratetol=1.0 / qcomp=0.60 / qpmin=0 / qpmax=69 / qpstep=4 / ip_ratio=1.40 / aq=1:1.00
Default : Да
Forced : НетАудио #1
Идентификатор : 2
Формат : AC-3
Формат/Информация : Audio Coding 3
Расширение режима : CM (complete main)
Параметр Endianness формата : Big
Идентификатор кодека : A_AC3
Продолжительность : 2 ч. 1 м.
Вид битрейта : Постоянный
Битрейт : 256 Кбит/сек
Каналы : 2 канала
Расположение каналов : Front: L R
Частота : 48,0 КГц
Частота кадров : 31,250 кадров/сек (1536 spf)
Метод сжатия : С потерями
Задержка видео : -22 мс.
Размер потока : 222 Мбайт (5%)
Язык : Russian
Default : Да
Forced : НетАудио #2
Идентификатор : 3
Формат : AC-3
Формат/Информация : Audio Coding 3
Расширение режима : CM (complete main)
Параметр Endianness формата : Big
Идентификатор кодека : A_AC3
Продолжительность : 2 ч. 1 м.
Вид битрейта : Постоянный
Битрейт : 256 Кбит/сек
Каналы : 2 канала
Расположение каналов : Front: L R
Частота : 44,1 КГц
Частота кадров : 28,711 кадров/сек (1536 spf)
Метод сжатия : С потерями
Задержка видео : -22 мс.
Размер потока : 222 Мбайт (5%)
Язык : English
Default : Нет
Forced : Нет

Скриншот c названием фильма

Скриншоты

Яндекс.Метрика
Рейтинг@Mail.ru