Варкрафт / Warcraft (Дункан Джонс / Duncan Jones) [2016 г., фэнтези, боевик, приключения, WEBRip-AVC] Dub [Чистый Звук] + Original (Eng) + Sub (Kor)

 

Создавать темы 09-Июл-2016 03:22

--Варкрафт / Warcraft--«Два мира - одна судьба»-- Производство: США, Atlas Entertainment, Blizzard Entertainment, Legendary Pictures, Universal Pictures
Год выпуска: 2016 г.
Жанр: фэнтези, боевик, приключения
Продолжительность: 02:01:04--Мировая премьера: 25 мая 2016
Российская премьера: 26 мая 2016, «UPI»--Перевод: Профессиональный (полное дублирование) [Чистый звук]
Оригинальный аудиопоток: английский--Режиссер: Дункан Джонс / Duncan Jones--В ролях: Трэвис Фиммел, Пола Пэттон, Бен Фостер, Доминик Купер, Тоби Кеббелл, Бен Шнетцер, Роберт Казински, Клэнси Браун, Дэниэл Ву, Рут Негга--Описание: Веками магия и неприступные стены защищали людей от любых напастей. Но древнее зло, побежденное и забытое тысячелетия назад, пробудилось.
В самом сердце королевства открылся темный портал, и раса невиданных существ наводнила земли Азерота. Так начались события, призванные навсегда изменить судьбу этого мира.-- --Качество видео: WEBRip-AVC
Контейнер: MKV
Видео кодек: AVC/H.263
Аудио кодек: AC3
Видео: AVC, 1024x422, 1958 kbps, 29,970 fps, 0.151 bpp
Аудио 1: 48 kHz, AC3 Dolby Digital, 2/0 (L,R) ch, ~256 kbps RUS
Аудио 2: 48 kHz, AC3 Dolby Digital, 2/0 (L,R) ch, ~256 kbps ENGCубтитры: Корейские (вшитые)

Media Info

Общее
Уникальный идентификатор : 266369396413388997089170729789204197652 (0xC864E132D86F5D1260E4D6B738FBF114)
Полное имя : H:\Torrent2\WarKrAFTo.2O16.D.WEBRip.AVC.mkv
Формат : Matroska
Версия формата : Version 2
Размер файла : 2,13 Гбайт
Продолжительность : 2 ч. 1 м.
Общий поток : 2521 Кбит/сек
Дата кодирования : UTC
Программа кодирования : HandBrake 0.10.2 2015060900
Библиотека кодирования : Lavf55.12.0 / Lavf55.12.0Видео
Идентификатор : 1
Формат : MPEG-4 Visual
Профиль формата : [email protected]/* */
Параметр BVOP формата : Нет
Параметр QPel формата : Нет
Параметр GMC формата : Без точки перехода
Параметр матрицы формата : Default (H.263)
Идентификатор кодека : V_MPEG4/ISO/ASP
Идентификатор кодека/Информация : Advanced Simple Profile
Продолжительность : 2 ч. 1 м.
Битрейт : 1958 Кбит/сек
Ширина : 1024 пикселя
Высота : 422 пикселя
Соотношение сторон : 2,40:1
Режим частоты кадров : Постоянный
Частота кадров : 29,970 (30000/1001) кадров/сек
Цветовое пространство : YUV
Субдискретизация насыщенности : 4:2:0
Битовая глубина : 8 бит
Тип развёртки : Прогрессивная
Метод сжатия : С потерями
Бит/(Пиксели*Кадры) : 0.151
Размер потока : 1,66 Гбайт (78%)
Библиотека кодирования : Lavc55.34.1
Default : Да
Forced : НетАудио #1
Идентификатор : 2
Формат : AC-3
Формат/Информация : Audio Coding 3
Расширение режима : CM (complete main)
Параметр Endianness формата : Big
Идентификатор кодека : A_AC3
Продолжительность : 2 ч. 1 м.
Вид битрейта : Постоянный
Битрейт : 256 Кбит/сек
Каналы : 2 канала
Расположение каналов : Front: L R
Частота : 48,0 КГц
Частота кадров : 31,250 кадров/сек (1536 spf)
Метод сжатия : С потерями
Задержка видео : -5 мс.
Размер потока : 222 Мбайт (10%)
Заголовок : Stereo
Язык : Russian
Default : Да
Forced : НетАудио #2
Идентификатор : 3
Формат : AC-3
Формат/Информация : Audio Coding 3
Расширение режима : CM (complete main)
Параметр Endianness формата : Big
Идентификатор кодека : A_AC3
Продолжительность : 2 ч. 1 м.
Вид битрейта : Постоянный
Битрейт : 256 Кбит/сек
Каналы : 2 канала
Расположение каналов : Front: L R
Частота : 48,0 КГц
Частота кадров : 31,250 кадров/сек (1536 spf)
Метод сжатия : С потерями
Задержка видео : -5 мс.
Размер потока : 222 Мбайт (10%)
Заголовок : Stereo
Язык : English
Default : Нет
Forced : Нет

Скриншоты

Трейлер
Яндекс.Метрика
Рейтинг@Mail.ru