[ Сегодня на трекере фрилич! Идет свободное скачивание без начисления Download ]

Зачётный препод / Fack ju Göhte (Бора Дагтекин / Bora Dagtekin) [2013 г., комедия, BDRip-AVC] Dub [Лицензмя] + Sub (Rus)

 

Создавать темы 08-Июл-2016 04:00

-Зачётный препод / Fack ju Göhte-- Производство: Германия, Constantin Film Produktion GmbH, Rat Pack Filmproduktion GmbH, ...
Год выпуска: 2013 г.
Жанр: комедия
Продолжительность: 01:57:08Мировая премьера: 7 ноября 2013
Российская премьера: 4 декабря 2014, «Ракета Релизинг»
Дата выхода DVD: 15 января 2015, «CD Land»
Перевод: Профессиональный (полное дублирование) [Лицензмя]
Режиссер: Бора Дагтекин / Bora Dagtekin-В ролях: Элиас ЭмБарек, Каролина Херфурт, Катя Риман, Яна Палласке, Алвара Хёфельс, Йелла Хаазе, Макс фон Гробен, Анна-Лена Кленке, Гизем Эмре, Арам Арами-Описание: Незадачливый грабитель банков Зеки Мюллер после тринадцати месяцев отсидки выходит из тюрьмы. Он отправляется на поиски награбленной добычи, которая была спрятана на стройке. Вместе с подружкой они думали, что там идёт всего-навсего прокладка труб. Каково же удивление горе-грабителя, когда он обнаруживает на нужном месте новенький школьный спортзал!Чтобы добраться до награбленного, Зеки пытается устроиться на место школьного сторожа. Но в результате лёгкого недопонимания вместо этого его берут в качестве учителя на замену. Ему достаётся самый буйный и ненормальный класс во всей школе — 10 «Б». Используя несколько необычные методы, бывший грабитель неожиданно находит общий язык с учениками. Одновременно с этим по ночам он пытается добраться до спрятанной добычи и влюбляется в коллегу-учительницу Лиси.-
Качество видео: BDRip-AVC
Контейнер: MKV
Видео кодек: MPEG4 AVC
Аудио кодек: AC3
Видео: 1024x434 (2.35:1), 24.000 fps, x264 ~1384 kbps avg, 0.130 bit/pixel
Аудио: 48 kHz, AC3 Dolby Digital, 3/2 (L,C,R,l,r) + LFE ch, ~384.00 kbps Constant |Дубляж|
Cубтитры: русские
Формат субтитров: softsub (SRT)
Доп. информация о субтитрах: включаемые

Доп. информация

На кофейной кружке миссис Герштер написана фраза «Ein Herz für Lehrer» («Сердце — учителям»). Это отсылка к агентству по оказанию помощи детям, которое называется Ein Herz für Kinder («Сердце — детям»).

Рецензия

Иди к чёрту, Гёте.Очень трудно оценить фильм глядя на его высокую оценку и отсутствие рецензий. Создается впечатление, что тебя пытаются обмануть навязав как-бы хорошее кино в отсутствии подтверждения этому. Очень странно что на КиноПоиске не оказалось ни одной рецензии, потому что для не которых и для меня в том числе это как эталон качества или анти-качества…Что же касается самого фильма… Мотивацией для просмотра стало несколько факторов:1. Главную роль исполняет Каролина Херфурт, после роли которой во Вкусе Ночи, я с удовольствием слежу за ее творчеством.2. В последнее время все что не производства США вызывает неподдельный интерес, рискуя быть чем-то не тривиальным.3. И наконец… это комедия, которая в обилии снимаемого кино, не частый гость на на экранах. Ведь комедия комедии рознь.В общем это очаровательный легкий фильм, не смотря на некоторое количество плоских шуток, а кто не грешен, чем-то напоминает Испанские комедии или может просто отличается от американских.Все до невозможности просто… Главный герой устраивается в школу, чтобы достать оттуда спрятанные, ворованные, некогда деньги, но это вы и в описании прочитать можете.Фильм идет почти 2 часа и просто гигантским критерием для меня в данной ситуации стало то что я не разу ни посмотрела сколько осталось до конца.А мораль сей басни такова — это отличное кино, милое, доброе и не

Media Info

Общее
Уникальный идентификатор : 201282667725336558580140782350375716985 (0x976DA1B779476D9BA7990F68D81A0879)
Полное имя : F:\Зачётный препод\Zachetny Prepod.2013.D.BDRip-AVC.[pirat.ca].mkv
Формат : Matroska
Версия формата : Version 2
Размер файла : 1,45 Гбайт
Продолжительность : 1 ч. 57 м.
Общий поток : 1770 Кбит/сек
Дата кодирования : UTC 2016-07-07 11:14:08
Программа кодирования : mkvmerge v5.3.0 ('I could have danced') built on Feb 9 2012 10:38:07
Библиотека кодирования : libebml v1.2.3 + libmatroska v1.3.0Видео
Идентификатор : 1
Формат : AVC
Формат/Информация : Advanced Video Codec
Профиль формата : [email protected]/* */
Параметр CABAC формата : Да
Параметр ReFrames формата : 13 кадров
Идентификатор кодека : V_MPEG4/ISO/AVC
Продолжительность : 1 ч. 57 м.
Битрейт : 1384 Кбит/сек
Ширина : 1024 пикселя
Высота : 434 пикселя
Соотношение сторон : 2,35:1
Режим частоты кадров : Постоянный
Частота кадров : 24,000 кадра/сек
Цветовое пространство : YUV
Субдискретизация насыщенности : 4:2:0
Битовая глубина : 8 бит
Тип развёртки : Прогрессивная
Бит/(Пиксели*Кадры) : 0.130
Размер потока : 1,10 Гбайт (76%)
Библиотека кодирования : x264 core 138 r2356 a1d3d17
Настройки программы : cabac=1 / ref=13 / deblock=1:-3:-2 / analyse=0x3:0x113 / me=umh / subme=10 / psy=1 / psy_rd=1.00:0.05 / mixed_ref=1 / me_range=32 / chroma_me=1 / trellis=2 / 8x8dct=1 / cqm=0 / deadzone=21,11 / fast_pskip=0 / chroma_qp_offset=-3 / threads=3 / lookahead_threads=1 / sliced_threads=0 / nr=0 / decimate=0 / interlaced=0 / bluray_compat=0 / constrained_intra=0 / bframes=8 / b_pyramid=2 / b_adapt=2 / b_bias=0 / direct=3 / weightb=1 / open_gop=0 / weightp=2 / keyint=240 / keyint_min=24 / scenecut=40 / intra_refresh=0 / rc_lookahead=40 / rc=2pass / mbtree=1 / bitrate=1384 / ratetol=1.0 / qcomp=0.60 / qpmin=0 / qpmax=69 / qpstep=4 / cplxblur=20.0 / qblur=0.5 / ip_ratio=1.40 / aq=1:1.00
Default : Да
Forced : НетАудио
Идентификатор : 2
Формат : AC-3
Формат/Информация : Audio Coding 3
Расширение режима : CM (complete main)
Параметр Endianness формата : Big
Идентификатор кодека : A_AC3
Продолжительность : 1 ч. 57 м.
Вид битрейта : Постоянный
Битрейт : 384 Кбит/сек
Каналы : 6 каналов
Расположение каналов : Front: L C R, Side: L R, LFE
Частота : 48,0 КГц
Частота кадров : 31,250 кадров/сек (1536 spf)
Метод сжатия : С потерями
Размер потока : 322 Мбайт (22%)
Язык : Russian
Default : Да
Forced : НетТекст
Идентификатор : 3
Формат : UTF-8
Идентификатор кодека : S_TEXT/UTF8
Идентификатор кодека/Информация : UTF-8 Plain Text
Заголовок : RUS.full
Язык : Russian
Default : Нет
Forced : Нет

Скриншот c названием фильма

Скриншоты

-Трейлер
Яндекс.Метрика
Рейтинг@Mail.ru