[ Сегодня на трекере фрилич! Идет свободное скачивание без начисления Download ]

Мисс Переполох / Без любви виноватый / She's Funny That Way (Питер Богданович / Peter Bogdanovich) [2014 г., комедия, BDRip-AVC] Dub [iTunes] + Sub (Rus)

 

Создавать темы 08-Июл-2016 03:45

-Мисс Переполох / Без любви виноватый / She's Funny That Way-- Производство: США, Германия, Lagniappe Films, Lailaps Pictures, Venture Forth
Год выпуска: 2014 г.
Жанр: комедия
Продолжительность: 01:33:38Мировая премьера: 29 августа 2014
Российская премьера: 7 мая 2015, «Централ Партнершип»
Дата выхода DVD: 18 июня 2015, «CD Land»
Перевод: Профессиональный (полное дублирование) [iTunes]
Режиссер: Питер Богданович / Peter Bogdanovich-В ролях: Оуэн Уилсон, Имоджен Путс, Кэтрин Хан, Уилл Форте, Рис Иванс, Дженнифер Энистон, Сибилл Шепард, Остин Пендлтон, Джоанна Ламли, Ричард Льюис, Иллиана Даглас, Грейдон Картер, Эрин Хизертон, Мелани Хилл, Джейк Хоффман, Деби Мейзар, Джордж Морфоген, Това Фелдшух, Ана О’Райли....-Описание: На первый взгляд может показаться, что Изабелла — простая девушка по вызову из Бруклина. Но, ворвавшись в тихую и размеренную жизнь бродвейского режиссера Альберта, она буквально перевернет ее вверх дном, станет причиной нескольких скандалов и раскроет все немыслимые семейные тайны. Если вы о ней еще не слышали, тогда она идет к вам!-
Качество видео: BDRip-AVC
Контейнер: MKV
Видео кодек: MPEG4 AVC
Аудио кодек: AC3
Видео: AVC, 1112x600 (1.85:1), 2464 kbps, 23.976 fps, 0.154 bit/pixel
Аудио: AC3 Dolby Digital, 3/2 (L,C,R,l,r) + LFE ch, 48 kHz, 384 kbps
Cубтитры: русские
Формат субтитров: softsub (SRT)
Доп. информация о субтитрах: включаемые

Доп. информация

Главную женскую роль могли исполнить Бри Ларсон и Оливия Уайлд, но из-за несогласованности съемочных графиков обе актрисы покинули проект, и роль досталась Имоджен Путс.
Работа над фильмом была начата еще в середине 1990-х годов. Тогда его название было «Soup to Nuts» («От начала до конца»), а в главной роли должна была сняться Татум О’Нил.

Рецензия

По-своему забавная «Мисс Переполох»She’s Funny That Way — оригинальное название фильма, и именно в нем заложен стиль романтической комедии середины прошлого века. Наивность героев, до абсурда доведенные совпадения, взрывная развязка, пара комедийных гротескных персонажей и, конечно же, шарм главных персонажей — такой набор работал в классических комедиях. «Завтрак у Тиффани» (1961), «Римские Каникулы» (1953) и даже «Настоящая Женщина»(Isn’t She Great, 1999) — фильмы, стиль которых я вспоминал во время просмотра, но, к моему удивлению, меня ни разу не посетило чувство, что фильм пародирует классику или что это некий ремейк.Все лучшее из классической романтической комедии режиссер реализовал в героях нашего времени, живущих в реальном современном Нью-Йорке. Несмотря на порочный подтекст, сюжет становится «сказочным» в пересказе главной героини Изи (Imogen Poots). Ей, «музе по вызову», выпадает шанс стать тем, кем она действительно хочет — актрисой, и первая же роль, которая ей достается — проститутка. Но не так все просто. Как выясняется, Нью-Йорк — это очень маленький город, и вскоре весь этот любовный многоугольник запутывается в какую-то хаотичную звезду. Неврастеничная психоаналитик Джейн (Jennifer Aniston, кстати, изначально должна была играть Изи) вместо помощи своим пациентам лишь льет масло в огонь. Наблюдать за этим крайне приятно, забавно и очень смешно. Все очень романтично, нет ни капли пошлости. В кадре мало двигаются и много говорят, но при этом очень четко играют образами. В кадре постоянно появляются мелкие намеки на крупные обстоятельства, они дают зрителю подсмотреть немного вперед. Но тем ни менее эти подсказки не делают сюжет излишне очевидным.В последнее время для увеличения беспристрастности восприятия фильма я стараюсь не читать ничего о фильме до его просмотра. Кроме синопсиса и трейлера, конечно. В рекламе трубят, что фильм «от создателей «Отель «Гранд Будапешт»»», но в действительности оказалось, что из общего у них только продюсер Уэс Андерсон. Признаюсь честно, «Гранд Будапешт» я прочувствовал не до конца, «Мисс Переполох» же смотрел на одном дыхании. В нем меньше стилистических ссылок, гротеска, все как то привычнее и понятнее.Получил огромное удовольствие от просмотра. Рекомендую всем, пожалуй, кроме, подростков. Отличный вариант, если размышляете, куда бы сходить на свидании. Для просмотра с детьми тоже не рекомендую, дети могут не понять юмор.10 из 10

Media Info

Общее
Уникальный идентификатор : 173942766312893246062908954495714516341 (0x82DC2881719B2EB0B2CAFF9F9F06DD75)
Полное имя : F:\Мисс Переполох\She's Funny That Way.2014.[pirat.ca].mkv
Формат : Matroska
Версия формата : Version 2
Размер файла : 1,86 Гбайт
Продолжительность : 1 ч. 33 м.
Общий поток : 2850 Кбит/сек
Название фильма : Мисс Переполох / She's Funny That Way (2014)
Дата кодирования : UTC 2016-07-07 16:47:22
Программа кодирования : mkvmerge v5.3.0 ('I could have danced') built on Feb 9 2012 10:38:07
Библиотека кодирования : libebml v1.2.3 + libmatroska v1.3.0
Обложка : Yes
Attachments : cover.jpgВидео
Идентификатор : 1
Формат : AVC
Формат/Информация : Advanced Video Codec
Профиль формата : [email protected]/* */
Параметр CABAC формата : Да
Параметр ReFrames формата : 10 кадров
Идентификатор кодека : V_MPEG4/ISO/AVC
Продолжительность : 1 ч. 33 м.
Битрейт : 2410 Кбит/сек
Ширина : 1112 пикселей
Высота : 600 пикселей
Соотношение сторон : 1,85:1
Режим частоты кадров : Постоянный
Частота кадров : 23,976 (24000/1001) кадра/сек
Цветовое пространство : YUV
Субдискретизация насыщенности : 4:2:0
Битовая глубина : 8 бит
Тип развёртки : Прогрессивная
Бит/(Пиксели*Кадры) : 0.151
Размер потока : 1,58 Гбайт (85%)
Заголовок : She's Funny That Way (2014)
Библиотека кодирования : x264 core 148 r2705kMod 3f5ed56
Настройки программы : cabac=1 / ref=10 / deblock=1:-2:-1 / analyse=0x3:0x133 / me=umh / subme=10 / psy=1 / fade_compensate=0.00 / psy_rd=1.03:0.05 / mixed_ref=1 / me_range=32 / chroma_me=1 / trellis=2 / 8x8dct=1 / cqm=0 / deadzone=21,11 / fast_pskip=0 / chroma_qp_offset=-3 / threads=6 / lookahead_threads=1 / sliced_threads=0 / nr=0 / decimate=1 / interlaced=0 / bluray_compat=0 / constrained_intra=0 / fgo=0 / bframes=11 / b_pyramid=2 / b_adapt=2 / b_bias=0 / direct=1 / weightb=1 / open_gop=0 / weightp=2 / keyint=250 / keyint_min=23 / scenecut=40 / intra_refresh=0 / rc_lookahead=60 / rc=crf / mbtree=0 / crf=18.4000 / qcomp=0.60 / qpmin=0 / qpmax=69 / qpstep=4 / vbv_maxrate=50000 / vbv_bufsize=62500 / crf_max=0.0 / nal_hrd=none / filler=0 / ip_ratio=1.40 / pb_ratio=1.30 / aq=2:0.90
Язык : English
Default : Да
Forced : Нет
Цветовой диапазон : Limited
Основные цвета : BT.709
Характеристики трансфера : BT.709
Коэффициенты матрицы : BT.709
Statistics Tags Issue : mkvmerge v8.1.0 ('Psychedelic Postcard') 64bit 2016-07-07 14:30:14 / mkvmerge v5.3.0 ('I could have danced') built on Feb 9 2012 10:38:07 2016-07-07 16:47:22
FromStats_BitRate : 2463864
FromStats_Duration : 01:33:38.656000000
FromStats_FrameCount : 134713
FromStats_StreamSize : 1730451123Аудио
Идентификатор : 2
Формат : AC-3
Формат/Информация : Audio Coding 3
Расширение режима : CM (complete main)
Параметр Endianness формата : Big
Идентификатор кодека : A_AC3
Продолжительность : 1 ч. 33 м.
Вид битрейта : Постоянный
Битрейт : 384 Кбит/сек
Каналы : 6 каналов
Расположение каналов : Front: L C R, Side: L R, LFE
Частота : 48,0 КГц
Частота кадров : 31,250 кадров/сек (1536 spf)
Метод сжатия : С потерями
Размер потока : 257 Мбайт (13%)
Заголовок : Дубляж. iTunes
Язык : Russian
Default : Да
Forced : Нет
Statistics Tags Issue : mkvmerge v8.1.0 ('Psychedelic Postcard') 64bit 2016-07-07 14:30:14 / mkvmerge v5.3.0 ('I could have danced') built on Feb 9 2012 10:38:07 2016-07-07 16:47:22
FromStats_BitRate : 383994
FromStats_Duration : 01:33:38.380000000
FromStats_FrameCount : 175572
FromStats_StreamSize : 269678592Текст
Идентификатор : 3
Формат : UTF-8
Идентификатор кодека : S_TEXT/UTF8
Идентификатор кодека/Информация : UTF-8 Plain Text
Язык : Russian
Default : Нет
Forced : Нет
Statistics Tags Issue : mkvmerge v8.1.0 ('Psychedelic Postcard') 64bit 2016-07-07 14:30:14 / mkvmerge v5.3.0 ('I could have danced') built on Feb 9 2012 10:38:07 2016-07-07 16:47:22
FromStats_BitRate : 167
FromStats_Duration : 01:26:54.049000000
FromStats_FrameCount : 1815
FromStats_StreamSize : 109338Меню
00:00:00.000 : en:00:00:00.000
00:10:08.358 : en:00:10:08.358
00:21:49.433 : en:00:21:49.433
00:27:55.215 : en:00:27:55.215
00:35:10.358 : en:00:35:10.358
00:40:07.196 : en:00:40:07.196
00:48:39.959 : en:00:48:39.959
00:57:48.131 : en:00:57:48.131
01:06:56.179 : en:01:06:56.179
01:12:26.926 : en:01:12:26.926
01:20:50.387 : en:01:20:50.387
01:25:34.546 : en:01:25:34.546

Скриншот c названием фильма

Скриншоты

-Трейлер
Яндекс.Метрика
Рейтинг@Mail.ru