[ Сегодня на трекере фрилич! Идет свободное скачивание без начисления Download ]

Налетчики / Marauders (2016) WEB-DLRip

 

Создавать темы 07-Июл-2016 11:00

- Налетчики / Marauders (2016) WEB-DLRip - Производство: Канада, 4th Wall Entertainment, Emmett/Furla Films, Grindstone Entertainment Group, Lionsgate Home Entertainment
Жанр: Боевик
Режиссер: Стивен С. Миллер
Актеры: Брюс Уиллис, Кристофер Мелони, Дэйв Батиста, Эдриан Гренье, Лидия Халл, Тайлер Джон Олсон, Кристофер Роб Бауэн, Дэнни А. Абекейзер, Тексас Бэттл
Описание:
История об агенте ФБР, который нападает на след преступников, ограбивших банк и отдавших все украденные деньги на благотворительные нужды. Чем дальше продвигается расследование, тем больше главный герой убеждается в том, что у владельца банка имеются собственные секреты.-Рейтинг MPAA: R (лицам до 17 лет обязательно присутствие взрослого)
Премьера (мир): 1 июля 2016, ...
Премьера (РФ): 11 августа 2016, «MEGOGO Distribution»

Продолжительность: 01:47:07
Качество видео: WEB-DLRip [thumb]http://sendfile.su/1248083[/thumb]
Перевод: Любительский многоголосый (СПД)
Субтитры: Отсутствуют
Видео: Xvid, 720x304, ~1553 Kbps
Аудио: AC3, 6 ch, 384 Kbps

Mediainfo:

Общее
Полное имя                               : F:\Marauders.2016.L.1400.WEB-DLRip.NNM-CLUB.avi
Формат                                   : AVI
Формат/Информация                        : Audio Video Interleave
Размер файла                             : 1,46 Гбайт
Продолжительность                        : 1 ч. 47 м.
Общий поток                              : 1947 Кбит/сек
Название фильма                          : rustorrents.info
Программа кодирования                    : VirtualDubMod 1.5.10.3 | (build 2550/release)
Видео
Идентификатор                            : 0
Формат                                   : MPEG-4 Visual
Профиль формата                          : Advanced [email protected]
Параметр BVOP формата                    : 2
Параметр QPel формата                    : Нет
Параметр GMC формата                     : Без точки перехода
Параметр матрицы формата                 : Выборочная
Идентификатор кодека                     : XVID
Идентификатор кодека/Подсказка           : XviD
Продолжительность                        : 1 ч. 47 м.
Битрейт                                  : 1553 Кбит/сек
Ширина                                   : 720 пикселей
Высота                                   : 304 пикселя
Соотношение сторон                       : 2,35:1
Частота кадров                           : 23,976 кадра/сек
Цветовое пространство                    : YUV
Субдискретизация насыщенности            : 4:2:0
Битовая глубина                          : 8 бит
Тип развёртки                            : Прогрессивная
Метод сжатия                             : С потерями
Бит/(Пиксели*Кадры)                      : 0.296
Размер потока                            : 1,16 Гбайт (80%)
Библиотека кодирования                   : XviD 1.2.1 (UTC 2008-12-04)
Аудио
Идентификатор                            : 1
Формат                                   : AC-3
Формат/Информация                        : Audio Coding 3
Расширение режима                        : CM (complete main)
Параметр Endianness формата              : Big
Идентификатор кодека                     : 2000
Продолжительность                        : 1 ч. 47 м.
Вид битрейта                             : Постоянный
Битрейт                                  : 384 Кбит/сек
Каналы                                   : 6 каналов
Расположение каналов                     : Front: L C R, Side: L R, LFE
Частота                                  : 48,0 КГц
Битовая глубина                          : 16 бит
Метод сжатия                             : С потерями
Размер потока                            : 294 Мбайт (20%)
Выравнивание                             : Разделение по промежуткам
Продолжительность промежутка             : 42  мс. (1,00 видеокадр)
Время предзагрузки промежутка            : 500  мс.
Скриншоты:
Яндекс.Метрика
Рейтинг@Mail.ru