Поймай меня, если сможешь / Catch Me If You Can (2002) BDRip [H.264]

 

Создавать темы 06-Июл-2016 11:49

-Поймай меня, если сможешь / Catch Me If You Can (2002) BDRip- Год выпуска: 2002
Жанр: Детектив, Криминал
Описание фильма:
Фрэнк Эбегнейл успел поработать врачом, адвокатом и пилотом на пассажирской авиалинии — и все это до достижения полного совершеннолетия в 21 год. Мастер в обмане и жульничестве, он также обладал искусством подделки документов, что в конечном счете принесло ему миллионы долларов, которые он получил по фальшивым чекам.
Режиссер: Стивен Спилберг
Актеры: Леонардо ДиКаприо, Том Хэнкс, Кристофер Уокен, Мартин Шин, Натали Бэй, Эми Адамс, Джеймс Бролин, Брайан Хау, Фрэнк Джон Хьюз, Стив Истин-Продолжительность: 02:14:57
Качество видео: BDRip
Перевод: Дублированный-Видеокодек: MPEG-4 AVC/H.264
Битрейт видео: ~2000 Kbps
Размер кадра: 960x544
Аудиокодек: AC3 5.1
Битрейт аудио: 256 Kbps

MediaInfo

General
Unique ID : 185368491923931327042344385671263492552 (0x8B74AC456AC47A879FF1332C112D19C8)
Complete name : Поймай меня если сможешь.mkv
Format : Matroska
Format version : Version 4 / Version 2
File size : 2.12 GiB
Duration : 2h 14mn
Overall bit rate : 2 246 Kbps
Movie name : Catch Me If You Can (rip by smithland)
Encoded date : UTC 2010-02-22 21:41:31
Writing application : mkvmerge v5.9.0 ('On The Loose')
Writing library : libebml v1.3.0 + libmatroska v1.4.0
Attachment : Yes
Video
ID : 1
Format : AVC
Format/Info : Advanced Video Codec
Format profile : [url=mailto:[email protected]][email protected][/url]
Format settings, CABAC : Yes
Format settings, ReFrames : 10 frames
Codec ID : V_MPEG4/ISO/AVC
Duration : 2h 14mn
Bit rate : 2 000 Kbps
Width : 960 pixels
Height : 544 pixels
Display aspect ratio : 16:9
Frame rate mode : Constant
Frame rate : 25.000 fps
Color space : YUV
Chroma subsampling : 4:2:0
Bit depth : 8 bits
Scan type : Progressive
Bits/(Pixel*Frame) : 0.153
Stream size : 1.83 GiB (87%)
Writing library : x264 core 130 r2273 b3065e6
Encoding settings : cabac=1 / ref=10 / deblock=1:-2:0 / analyse=0x3:0x133 / me=umh / subme=11 / psy=1 / psy_rd=1.10:0.50 / mixed_ref=1 / me_range=26 / chroma_me=1 / trellis=2 / 8x8dct=1 / cqm=0 / deadzone=21,11 / fast_pskip=1 / chroma_qp_offset=-4 / threads=6 / lookahead_threads=1 / sliced_threads=0 / nr=0 / decimate=0 / interlaced=0 / bluray_compat=0 / constrained_intra=0 / bframes=7 / b_pyramid=2 / b_adapt=1 / b_bias=0 / direct=1 / weightb=1 / open_gop=0 / weightp=2 / keyint=250 / keyint_min=25 / scenecut=40 / intra_refresh=0 / rc_lookahead=40 / rc=abr / mbtree=1 / bitrate=2000 / ratetol=1.0 / qcomp=0.60 / qpmin=0 / qpmax=69 / qpstep=4 / ip_ratio=1.40 / aq=1:1.10
Language : Russian
Default : Yes
Forced : Yes
Color primaries : BT.709
Transfer characteristics : BT.709
Matrix coefficients : BT.709
Audio
ID : 2
Format : AC-3
Format/Info : Audio Coding 3
Mode extension : CM (complete main)
Format settings, Endianness : Big
Codec ID : A_AC3
Duration : 2h 14mn
Bit rate mode : Constant
Bit rate : 256 Kbps
Channel(s) : 6 channels
Channel positions : Front: L C R, Side: L R, LFE
Sampling rate : 48.0 KHz
Bit depth : 16 bits
Compression mode : Lossy
Stream size : 247 MiB (11%)
Language : Russian
Default : Yes
Forced : Yes
Menu
00:00:00.000 : en:Chapter 1
00:04:29.720 : en:Chapter 2
00:10:30.680 : en:Chapter 3
00:17:47.000 : en:Chapter 4
00:24:50.840 : en:Chapter 5
00:27:45.080 : en:Chapter 6
00:32:34.040 : en:Chapter 7
00:36:59.960 : en:Chapter 8
00:40:23.960 : en:Chapter 9
00:47:02.760 : en:Chapter 10
00:54:33.000 : en:Chapter 11
01:01:03.720 : en:Chapter 12
01:07:10.920 : en:Chapter 13
01:19:01.800 : en:Chapter 14
01:28:21.000 : en:Chapter 15
01:34:21.960 : en:Chapter 16
01:39:15.720 : en:Chapter 17
01:45:17.640 : en:Chapter 18
01:53:09.000 : en:Chapter 19
01:58:54.600 : en:Chapter 20
02:07:05.160 : en:Chapter 21
02:10:21.960 : en:Chapter 22
02:14:54.120 : en:Chapter 23
Скриншоты:
Яндекс.Метрика
Рейтинг@Mail.ru