Граница пустоты / Смертельный кадр / Gekijô-ban: Zero (Мари Асато / Mari Asato) [2014 г., ужасы, HDRip] DVO [den904 и deadsno; перевод akira9]

 

Создавать темы 06-Июл-2016 03:47

-Граница пустоты / Смертельный кадр / Gekijô-ban: Zero-- Производство: Япония Студия, Kadokawa
Год выпуска: 2014 г.
Жанр: ужасы
Продолжительность: 01:45:01Мировая премьера: 26 сентября 2014
Перевод: Любительский (двухголосый, закадровый) [den904 и deadsno; перевод akira9]
Режиссер: Мари Асато / Mari Asato-В ролях: Аои Морикава, Аями Накадзё, Кодай Асака, Минори Хагивара, Фудзико Кодзима, Джан Михо, Карен Мияма, Норико Накагоши, Юри Накамура, Касуми Яматани-Описание: Aя учится в школе для девочек, расположенной в горной деревне, и живет в школьном общежитии. Однажды, во сне она видит свою смерть. Проснувшись, Ая запирается в комнате и отказывается выходить из нее.В это же время, в общежитии происходят странные вещи: появляется призрак, пропадают девушки, причем, каждая без вести пропавшая, незадолго до исчезновения видела фотографию девушки похожей на Ая. Мути живет в том же общежитии, что и Ая. Подруга Мути, Кадзуми, исчезает прямо у нее на глазах. Мути пытается поговорить с Ая, но та не пускает ее в комнату. Вскоре находят тело Кадзуми…-
Качество видео: HDRip
Контейнер: AVI
Видео кодек: XviD
Аудио кодек: AC3
Видео: 720x400 (1.80:1), 23.976 fps, XviD build 50 ~1792 kbps avg, 0.26 bit/pixel
Аудио: 48 kHz, AC3 Dolby Digital, 2/0 (L,R) ch, ~192 kbps
Cубтитры: отсутствуют

Рецензия

Ая очень красивая и талантливая ученица, живущая в общежитие для девочек, общительная и милая, вдруг она запирается в своей комнате и не выходит уже месяц. И этим странным случаем обеспокоена Каздуми, которая вскоре пропадает. И теперь Мичи, распутывает тайны происходящие в школе.Много плюсов:1. Фильм очень красивый с операторской точки зрения, темные коридоры старого общежития, чердака и даже зеленый лес тут пропитан, неким ужасом и безысходностью.2. Фильм очень красивый по набору актрис, все девушки милые и симпатичные, мать настоятельница называет их куколками, которые должны пройти свой жизненный путь, превратившись из девочек в женщин.3. К тому же тут присутствует невидимое напряжение которое держит весь фильм от начала до конца. Фильм состоит из запутанного клубка из тайн и загадок, которые никак нельзя предугадать до самого конца.4. И еще несмотря на то что в фильме одни девушки и все действие проходит в женском общежитие, тут кипят настоящие страсти, ревность, влюбленность, одержимость и ревность.5. Конечно развязка, она трагична и цинична. В конце, когда клубок из вопросов стал просто огромным, раскрылись все ответы, они были исчерпывающими и понятными.Для меня фильм скорее драма чем ужасы, с красивой историей. Фильм понравиться любому зрителю, мне повезло что я на него наткнулась, поэтому ставлю хорошую оценку.8 из 10

Media Info

Общее
Полное имя : D:\D\Граница пустоты\Granica pustaty.2014.HDRip[pirat.ca].avi
Формат : AVI
Формат/Информация : Audio Video Interleave
Размер файла : 1,46 Гбайт
Продолжительность : 1 ч. 45 м.
Общий поток : 1994 Кбит/сек
Название фильма : Granica pustaty.2014.HDRip[pirat.ca]
Программа кодирования : VirtualDubMod 1.5.10.3 | www.virtualdub-fr.org || (build 2550/release)Видео
Идентификатор : 0
Формат : MPEG-4 Visual
Профиль формата : Advanced [email protected]/* */
Параметр BVOP формата : 1
Параметр QPel формата : Нет
Параметр GMC формата : Без точки перехода
Параметр матрицы формата : Default (MPEG)
Идентификатор кодека : XVID
Идентификатор кодека/Подсказка : XviD
Продолжительность : 1 ч. 45 м.
Битрейт : 1793 Кбит/сек
Ширина : 720 пикселей
Высота : 400 пикселей
Соотношение сторон : 16:9
Частота кадров : 23,976 (23976/1000) кадра/сек
Цветовое пространство : YUV
Субдискретизация насыщенности : 4:2:0
Битовая глубина : 8 бит
Тип развёртки : Прогрессивная
Метод сжатия : С потерями
Бит/(Пиксели*Кадры) : 0.260
Размер потока : 1,32 Гбайт (90%)
Библиотека кодирования : XviD 1.2.1 (UTC 2008-12-04)Аудио
Идентификатор : 1
Формат : AC-3
Формат/Информация : Audio Coding 3
Расширение режима : CM (complete main)
Параметр Endianness формата : Big
Идентификатор кодека : 2000
Продолжительность : 1 ч. 45 м.
Вид битрейта : Постоянный
Битрейт : 192 Кбит/сек
Каналы : 2 канала
Расположение каналов : Front: L R
Частота : 48,0 КГц
Частота кадров : 31,250 кадров/сек (1536 spf)
Метод сжатия : С потерями
Размер потока : 144 Мбайт (10%)
Выравнивание : Разделение по промежуткам
Продолжительность промежутка : 42 мс. (1,00 видеокадр)
Время предзагрузки промежутка : 500 мс.

Скриншот c названием фильма

Скриншоты

-Трейлер
Яндекс.Метрика
Рейтинг@Mail.ru