[ Сегодня на трекере фрилич! Идет свободное скачивание без начисления Download ]

Таможня дает добро / Rien à déclarer (Дэни Бун / Dany Boon) [2010 г., комедия, BDRip-AVC] Dub [Пифагор 2011 / Лицензия] + Sub (Rus, Ukr)

 

Создавать темы 04-Июл-2016 04:59

-Таможня дает добро / Rien à déclarer-- Производство: Франция, Canal+ [fr], Centre National de la Cinématographie (CNC), Ciné Cinémas, Les Productions du Ch'timi, Pathé, ...
Год выпуска: 2010 г.
Жанр: комедия
Продолжительность: 01:48:19Мировая премьера: 15 декабря 2010
Российская премьера: 14 апреля 2011, «West»
Дата выхода DVD: 18 октября 2011, «West Video»
Перевод: Профессиональный (полное дублирование) [Пифагор 2011 / Лицензия]
Режиссер: Дэни Бун / Dany Boon-В ролях: Бенуа Пульворд / Benoît Poelvoorde (Ruben Vandevoorde), Дэни Бун / Dany Boon (Mathias Ducatel,), Джули Бернард / Julie Bernard (Louise Vandevoorde), Карин Виар / Karin Viard (Irène Janus), Франсуа Дамиенс / François Damiens (Jacques Janus), Боли Ланнерс / Bouli Lanners (Bruno Vanuxem), Оливье Гурме / Olivier Gourmet (Le prêtre de Chimay), Мишель Вюйермоз / Michel Vuillermoz (Le divisionnaire Mercier), Кристел Педринелли / Christel Pedrinelli (Olivia Vandevoorde), Хоаким Ледеганк / Joachim Ledeganck (Léopold Vandevoorde), Филипп Маньян / Philippe Magnan (Le divisionnaire Mercier), Jean-Paul Dermont-Описание: История двух недотеп-таможенников, француза и бельгийца. Не испытывая особой приязни друг к другу, они, тем не менее, вынуждены стать напарниками и принимать участие в рискованной операции...-
Качество видео: BDRip-AVC
Контейнер: MKV
Видео кодек: MPEG4 AVC
Аудио кодек: AC3
Видео: 796x336 (2.35:1), 24.000 fps, 1 780 Kbps (0.277 bit/pixel)
Аудио: AC-3, 48.0 KHz, 2 ch, 192 Kbps, CBR | Русский
Cубтитры: русские, украинские

Доп. информация

Одна из главных ролей в фильме специально была написана с расчетом на Бенуа Пульворда. Прослышав об этом, бельгийский актёр встретился с режиссёром, прочитал сценарий и сразу же принял предложение.
Бенуа Пульворд согласился посетить премьерный показ фильма из уважения к Дэни Буну. До этого бельгийский актёр отказывался смотреть фильмы со своим участием на протяжении шести лет.

Рецензия

Обострение Дружбы Народов!Со времен «Раввина Якоба» — не помню другого такого классного фильма про Обострение Дружбы Народов (с большой буквы)!!! Конечно никакой перевод не передаст, что вытворяли Дэни Бун и Бенуа Пульвор с французским и бельгийским акцентом, но тем не менее, для любителей французского кино, эта комедия — obligatoire!В ней изумительно передана атмосфера Европы начала 90-х и вообще шарм французского кино! Ничего общего ни с комедиями Голливуда, ни с русскими комедиями — есть только некоторые реверансы в сторону других знаменитых французских лент (например «Такси», «Ch`tis»). Кроме двух блистательных главных героев, стоит еще отметить очаровательную Джули Бернар в роли невесты Матиаса и сестры Рубена и просто угарного Бруно Лоше в роли незадачливого контрабандиста.10 из 10

Media Info

Общее
Уникальный идентификатор : 222704959202368798247630810801620227411 (0xA78B6A3B6ADC75CCAA5E5EC3AF499553)
Полное имя : J:\Таможня дает добро\Tamoznja daet dobro.2010.BDRip-AVC.[pirat.ca].mkv
Формат : Matroska
Версия формата : Version 2
Размер файла : 1,49 Гбайт
Продолжительность : 1 ч. 48 м.
Общий поток : 1975 Кбит/сек
Дата кодирования : UTC 2016-07-03 00:40:17
Программа кодирования : mkvmerge v5.3.0 ('I could have danced') built on Feb 9 2012 10:38:07
Библиотека кодирования : libebml v1.2.3 + libmatroska v1.3.0Видео
Идентификатор : 3
Формат : AVC
Формат/Информация : Advanced Video Codec
Профиль формата : [email protected]/* */
Параметр CABAC формата : Да
Параметр ReFrames формата : 12 кадров
Идентификатор кодека : V_MPEG4/ISO/AVC
Продолжительность : 1 ч. 48 м.
Битрейт : 1780 Кбит/сек
Ширина : 796 пикселей
Высота : 336 пикселей
Соотношение сторон : 2,35:1
Режим частоты кадров : Постоянный
Частота кадров : 24,000 кадра/сек
Цветовое пространство : YUV
Субдискретизация насыщенности : 4:2:0
Битовая глубина : 8 бит
Тип развёртки : Прогрессивная
Бит/(Пиксели*Кадры) : 0.277
Размер потока : 1,32 Гбайт (88%)
Библиотека кодирования : x264 core 116 r2074kMod 2641b9e
Настройки программы : cabac=1 / ref=12 / deblock=1:-3:-3 / analyse=0x3:0x133 / me=umh / subme=11 / psy=1 / fade_compensate=0.00 / psy_rd=1.15:0.15 / mixed_ref=1 / me_range=32 / chroma_me=1 / trellis=2 / 8x8dct=1 / cqm=0 / deadzone=21,11 / fast_pskip=0 / chroma_qp_offset=-3 / threads=3 / sliced_threads=0 / nr=0 / decimate=0 / interlaced=0 / bluray_compat=0 / constrained_intra=0 / bframes=12 / b_pyramid=2 / b_adapt=2 / b_bias=0 / direct=3 / weightb=1 / open_gop=0 / weightp=2 / keyint=250 / keyint_min=24 / scenecut=40 / intra_refresh=0 / rc=2pass / mbtree=0 / bitrate=1780 / ratetol=1.0 / qcomp=0.60 / qpmin=0 / qpmax=69 / qpstep=4 / cplxblur=20.0 / qblur=0.5 / ip_ratio=1.40 / pb_ratio=1.30 / aq=1:0.85
Язык : English
Default : Да
Forced : Нет
Цветовой диапазон : Limited
Коэффициенты матрицы : BT.709Аудио
Идентификатор : 4
Формат : AC-3
Формат/Информация : Audio Coding 3
Расширение режима : CM (complete main)
Параметр Endianness формата : Big
Идентификатор кодека : A_AC3
Продолжительность : 1 ч. 48 м.
Вид битрейта : Постоянный
Битрейт : 192 Кбит/сек
Каналы : 2 канала
Расположение каналов : Front: L R
Частота : 48,0 КГц
Частота кадров : 31,250 кадров/сек (1536 spf)
Метод сжатия : С потерями
Размер потока : 149 Мбайт (10%)
Заголовок : Rus DUB
Язык : Russian
Default : Да
Forced : НетТекст #1
Идентификатор : 1
Формат : UTF-8
Идентификатор кодека : S_TEXT/UTF8
Идентификатор кодека/Информация : UTF-8 Plain Text
Заголовок : Русские
Язык : Russian
Default : Нет
Forced : НетТекст #2
Идентификатор : 2
Формат : UTF-8
Идентификатор кодека : S_TEXT/UTF8
Идентификатор кодека/Информация : UTF-8 Plain Text
Заголовок : Украинские
Язык : Ukrainian
Default : Нет
Forced : НетМеню #1
00:00:00.000 : :00:00:00.000
00:07:50.875 : :00:07:50.875
00:13:31.833 : :00:13:31.833
00:18:21.125 : :00:18:21.125
00:25:39.375 : :00:25:39.375
00:30:17.375 : :00:30:17.375
00:37:58.292 : :00:37:58.292
00:43:45.375 : :00:43:45.375
00:48:01.333 : :00:48:01.333
00:54:16.750 : :00:54:16.750
00:59:57.542 : :00:59:57.542
01:04:01.083 : :01:04:01.083
01:10:19.583 : :01:10:19.583
01:16:03.750 : :01:16:03.750
01:20:25.250 : :01:20:25.250
01:28:02.333 : :01:28:02.333
01:34:12.583 : :01:34:12.583
01:39:12.667 : :01:39:12.667
01:44:11.917 : :01:44:11.917Меню #2
00:00:00.054 : en:00:00:00.054

Скриншот c названием фильма

Скриншоты

-Трейлер
Яндекс.Метрика
Рейтинг@Mail.ru