Никки, дьявол - младший / Little Nicky (Стивен Брилл / Steven Brill) [2000 г., фэнтези, комедия, HDTVRip, 720p] Dub + MVO + AVO (С. Визгунов) + Original (Eng) + Sub (Rus, Eng)

 

Создавать темы 04-Июл-2016 04:48

-Никки, дьявол - младший / Little Nicky
«Если твой папа - дьявол, а мама - ангел, то ты, кажется, попал...»
-- Производство: США
Год выпуска: 2000 г.
Жанр: фэнтези, комедия
Продолжительность: 01:30:11Мировая премьера: 2 ноября 2000
Перевод: Профессиональный (полное дублирование)
Перевод 2: Профессиональный (многоголосый, закадровый)
Перевод 3: Авторский (одноголосый, закадровый) [С. Визгунов]
Оригинальный аудиопоток: английскийРежиссер: Стивен Брилл / Steven Brill-В ролях: Адам Сэндлер, Патриция Аркетт, Харви Кейтель, Рис Иванс, Том «Тайни» Листер мл., Родни Денджерфилд, Аллен Коверт, Питер Данте, Джонатан Лоугрэн, Роберт Шмигель-Описание: Когда подошло время Дьяволу передать ад одному из своих наследников и уйти на покой, он решил оставить власть за собой. Но двоим из них это не понравилось, и они решают бежать на Землю, чтобы там сотворить свой ад. Оттого, что дети оказались на Земле, дьявол стал распадаться на части. Он посылает за мятежными братьями своего младшего и любимого сына, Никки.
Незнакомый с правилами людского мира «бесенок» попадает в череду больших и малых переделок и в конце концов влюбляется в простую человеческую «самочку». И вот тут-то начинается самое страшное и самое смешное…
- -Качество видео: HDTVRip
Контейнер: MKV
Стандарт разрешения: 720p
Видео кодек: H.264/AVC
Аудио кодек: AC3, DTS
Видео: 1280x694, 23.976 fps, ~4820 kbps avg
Аудио: Russian: 48 kHz, AC3, 2.0 (L,R) ch, ~256 kbps |Дубляж|
Аудио #2: Russian: 48 kHz, AC3, 3/2 (L,C,R,l,r) + LFE ch, ~384 kbps |Mногоголосный|
Аудио #3: Russian: 48 kHz, DTS, 3/2 (L,C,R,l,r) + LFE ch, ~768 kbps |Авторский, (С. Визгунов)|
Аудио #4: English: 48 kHz, AC3, 3/2 (L,C,R,l,r) + LFE ch, ~384 kbpsCубтитры: русские, английские

Media Info

Код:
Format                      : Matroska
Format version              : Version 2
File size                   : 4.16 GiB
Duration                    : 1h 30mn
Overall bit rate            : 6 610 Kbps
Encoded date                : UTC 2010-05-25 19:57:04
Writing application         : mkvmerge v3.4.0 ('Rapunzel') сборка от May 15 2010 09:38:20
Writing library             : libebml v0.8.0 + libmatroska v0.9.0Video
ID                          : 1
Format                      : AVC
Format/Info                 : Advanced Video Codec
Format profile              : [email protected]/*  */
Format settings, CABAC      : Yes
Format settings, ReFrames   : 9 frames
Codec ID                    : V_MPEG4/ISO/AVC
Duration                    : 1h 30mn
Bit rate                    : 4 820 Kbps
Width                       : 1 280 pixels
Height                      : 694 pixels
Display aspect ratio        : 1.85:1
Frame rate mode             : Constant
Frame rate                  : 23.976 fps
Color space                 : YUV
Chroma subsampling          : 4:2:0
Bit depth                   : 8 bits
Scan type                   : Progressive
Bits/(Pixel*Frame)          : 0.226
Stream size                 : 2.95 GiB (71%)
Title                       : Little.Nicky.2000.720p.HDTV.x264-CtrlHD
Writing library             : x264 core 94 r1583 7608d73
Encoding settings           : cabac=1 / ref=9 / deblock=1:-2:-2 / analyse=0x3:0x133 / me=umh / subme=10 / psy=1 / psy_rd=1.40:0.00 / mixed_ref=1 / me_range=24 / chroma_me=1 / trellis=2 / 8x8dct=1 / cqm=0 / deadzone=21,11 / fast_pskip=1 / chroma_qp_offset=-2 / threads=6 / sliced_threads=0 / nr=0 / decimate=1 / interlaced=0 / constrained_intra=0 / bframes=6 / b_pyramid=2 / b_adapt=2 / b_bias=0 / direct=3 / weightb=1 / weightp=2 / keyint=250 / keyint_min=25 / scenecut=40 / intra_refresh=0 / rc_lookahead=40 / rc=2pass / mbtree=1 / bitrate=4820 / ratetol=1.0 / qcomp=0.60 / qpmin=10 / qpmax=51 / qpstep=4 / cplxblur=20.0 / qblur=0.5 / ip_ratio=1.40 / aq=1:1.40
Language                    : English
Default                     : Yes
Forced                      : NoAudio #1
ID                          : 2
Format                      : AC-3
Format/Info                 : Audio Coding 3
Mode extension              : CM (complete main)
Format settings, Endianness : Big
Codec ID                    : A_AC3
Duration                    : 1h 30mn
Bit rate mode               : Constant
Bit rate                    : 256 Kbps
Channel(s)                  : 2 channels
Channel positions           : Front: L R
Sampling rate               : 48.0 KHz
Bit depth                   : 16 bits
Compression mode            : Lossy
Stream size                 : 165 MiB (4%)
Title                       : дубляж [ac3 2ch 256 kbps]
Language                    : Russian
Default                     : Yes
Forced                      : NoAudio #2
ID                          : 3
Format                      : AC-3
Format/Info                 : Audio Coding 3
Mode extension              : CM (complete main)
Format settings, Endianness : Big
Codec ID                    : A_AC3
Duration                    : 1h 30mn
Bit rate mode               : Constant
Bit rate                    : 384 Kbps
Channel(s)                  : 6 channels
Channel positions           : Front: L C R, Side: L R, LFE
Sampling rate               : 48.0 KHz
Bit depth                   : 16 bits
Compression mode            : Lossy
Stream size                 : 248 MiB (6%)
Title                       : многоголосный [ac3 6ch 384 kbps]
Language                    : Russian
Default                     : No
Forced                      : NoAudio #3
ID                          : 4
Format                      : DTS
Format/Info                 : Digital Theater Systems
Mode                        : 16
Format settings, Endianness : Big
Codec ID                    : A_DTS
Duration                    : 1h 30mn
Bit rate mode               : Constant
Bit rate                    : 768 Kbps
Channel(s)                  : 6 channels
Channel positions           : Front: L C R, Side: L R, LFE
Sampling rate               : 48.0 KHz
Bit depth                   : 24 bits
Compression mode            : Lossy
Stream size                 : 495 MiB (12%)
Title                       : войсовер (С.Визгунов) [dts 6ch 755 kbps]
Language                    : Russian
Default                     : No
Forced                      : NoAudio #4
ID                          : 5
Format                      : AC-3
Format/Info                 : Audio Coding 3
Mode extension              : CM (complete main)
Format settings, Endianness : Big
Codec ID                    : A_AC3
Duration                    : 1h 30mn
Bit rate mode               : Constant
Bit rate                    : 384 Kbps
Channel(s)                  : 6 channels
Channel positions           : Front: L C R, Side: L R, LFE
Sampling rate               : 48.0 KHz
Bit depth                   : 16 bits
Compression mode            : Lossy
Delay relative to video     : 32ms
Stream size                 : 248 MiB (6%)
Title                       : original [ac3 6ch 384 kbps]
Language                    : English
Default                     : No
Forced                      : NoText #1
ID                          : 6
Format                      : UTF-8
Codec ID                    : S_TEXT/UTF8
Codec ID/Info               : UTF-8 Plain Text
Language                    : Russian
Default                     : No
Forced                      : NoText #2
ID                          : 7
Format                      : ASS
Codec ID                    : S_TEXT/ASS
Codec ID/Info               : Advanced Sub Station Alpha
Compression mode            : Lossless
Language                    : English
Default                     : No
Forced                      : No

Скриншоты

Яндекс.Метрика
Рейтинг@Mail.ru