[ Сегодня на трекере фрилич! Идет свободное скачивание без начисления Download ]

Страшные сказки / Il racconto dei racconti (Маттео Гарроне / Matteo Garrone) [2015 г., ужасы, фэнтези, мелодрама, BDRip-AVC, 720p] Dub [Novamedia 2015 / Лицензия] + Sub (Rus)

 

Создавать темы 02-Июл-2016 04:45

-Страшные сказки / Il racconto dei racconti-- Производство: Италия, Франция, Великобритания, Archimede, Le Pacte, Rai Cinema, ...
Год выпуска: 2015 г.
Жанр: ужасы, фэнтези, мелодрама
Продолжительность: 02:13:46Мировая премьера: 14 мая 2015
Российская премьера: 10 сентября 2015, «Cinema Prestige»
Перевод: Профессиональный (полное дублирование) [Novamedia 2015 / Лицензия]
Режиссер: Маттео Гарроне / Matteo Garrone-В ролях: Сальма Хайек, Венсан Кассель, Тоби Джонс, Джон Си Райли, Ширли Хендерсон, Хейли Кармайкл, Бебе Кейв, Стэйси Мартин, Кристиан Лис, Джона Лис-Описание: Маги и волшебники, короли и королевы, красавицы-принцессы и страшилы-великаны населяют эту потрясающую готическую фантазию. Сластолюбивый Король Одинокого Утеса берет в жены прелестную деву, а она превращается в уродливую старуху. Отважный Король Долины Туманов отправляется на бой с драконом, поскольку волшебник предсказал, что королева понесет ребенка, если съест сердце дракона. Ну, а Король Диких Гор с любовью выращивает гигантскую блоху, а родную дочь без тени сожаления отдает в жены горному огру. За стенами величественных замков строятся коварные козни, даются безрассудные обеты, там страстно любят и жестоко убивают…-
Качество видео: BDRip-AVC
Контейнер: MKV
Стандарт разрешения: 720p
Видео кодек: MPEG4 AVC
Аудио кодек: AC3
Видео: 1280x544 at 24.000 fps, [email protected]/* */, ~5465 kbps avg
Аудио: Russian: 48 kHz, AC3, 3/2 (L,C,R,l,r) + LFE ch, ~640 kbps avg |Дубляж, Blu-ray RUS|
Cубтитры: русские
Формат субтитров: softsub (SRT)
Доп. информация о субтитрах: включаемые

Награды

Каннский кинофестиваль, 2015 год
Номинации (1):
Золотая пальмовая ветвь

Рецензия

И в сказках бывает тьма.Очень удивительный, порой шокирующий, порой красивый, а порой невероятно отвратный фильм.Мир расколется на два лагеря. Нейтралов не будет. Но ознакомиться с картиной все же стоит.Сюжет:Перед вами три истории, которые не спеша развиваются на экране. Правда и спойлерить не нужно, все указано в описании. От сказки здесь есть только маленький призрачный дух, который иногда исчезает полностью, а иногда взрывает взор ярчайшими эмоциями.Вселенная этих сказок такова, что четкого деления на Добро и Зло попросту нет. Есть Цель, к которой идут герои, и есть Финал. И все средства хороши для достижения Цели.Будьте готовы к тому, что некоторые моменты фильма шокируют вас очень сильно. Сказка — ложь, да в ней намек. Очень верное замечание. Намеки повсюду: Как сильно любим мы своих детей. На что готовы пойти ради цели. Сможем ли преодолеть трудности. И стоит ли помогать незнакомцам.Картинка:Картинка выше всяких похвал. Операторская работа на высоте, даже не обращая внимания на картонных монстриков. Природа атмосферна и настраивает на нужный лад.Актеры:Каждый актер идеально подошел для своей роли. Будь то сумасшедший король или погрязшая во лжи старуха, которой просто хочется, чтобы все было хорошо. Актеры сделали этот фильм тем, чем он и является. Сложной, философской драмой, пронизанной острой сатирой и даже цинизмом.Вывод:Невероятный фильм, который нужно смотреть в определенном настроении. После просмотра остается много вопросов и мыслей на тему — «А что если?». Внезапная и интересная находка.10 из 10

Media Info

Общее
Уникальный идентификатор : 240974524766871677228301497279170541067 (0xB54A015BE27FA705AB09D3B85AE4F60B)
Полное имя : F:\Страшные сказки\Strashnye skazki.2015.720p.BluRay.x264.Rus.Subs-IDE.[pirat.ca].mkv
Формат : Matroska
Версия формата : Version 2
Размер файла : 5,81 Гбайт
Продолжительность : 2 ч. 13 м.
Общий поток : 6215 Кбит/сек
Дата кодирования : UTC 2016-07-01 16:54:21
Программа кодирования : mkvmerge v5.3.0 ('I could have danced') built on Feb 9 2012 10:38:07
Библиотека кодирования : libebml v1.2.3 + libmatroska v1.3.0
Обложка : Yes
Attachments : cover.pngВидео
Идентификатор : 1
Формат : AVC
Формат/Информация : Advanced Video Codec
Профиль формата : [email protected]/* */
Параметр CABAC формата : Да
Параметр ReFrames формата : 12 кадров
Идентификатор кодека : V_MPEG4/ISO/AVC
Продолжительность : 2 ч. 13 м.
Битрейт : 5452 Кбит/сек
Ширина : 1280 пикселей
Высота : 544 пикселя
Соотношение сторон : 2,35:1
Режим частоты кадров : Постоянный
Частота кадров : 24,000 кадра/сек
Цветовое пространство : YUV
Субдискретизация насыщенности : 4:2:0
Битовая глубина : 8 бит
Тип развёртки : Прогрессивная
Бит/(Пиксели*Кадры) : 0.326
Размер потока : 5,09 Гбайт (88%)
Заголовок : IDE
Библиотека кодирования : x264 core 148 r2579+50 65f745f t_mod_Custom [[email protected]/* */ X86_64]
Настройки программы : cabac=1 / ref=12 / deblock=1:-3:-3 / analyse=0x3:0x133 / me=umh / subme=10 / psy=1 / fade_compensate=0.00 / psy_rd=1.00:0.00 / mixed_ref=1 / me_range=48 / chroma_me=1 / trellis=2 / 8x8dct=1 / cqm=0 / deadzone=21,11 / fast_pskip=1 / chroma_qp_offset=-2 / threads=8 / lookahead_threads=1 / sliced_threads=0 / nr=0 / decimate=1 / interlaced=0 / bluray_compat=0 / constrained_intra=0 / fgo=0 / bframes=8 / b_pyramid=2 / b_adapt=2 / b_bias=0 / direct=3 / weightb=1 / open_gop=0 / weightp=2 / keyint=250 / keyint_min=24 / scenecut=40 / intra_refresh=0 / rc_lookahead=150 / rc=crf / mbtree=0 / crf=15.6000 / qcomp=0.60 / qpmin=0:0:0 / qpmax=69:69:69 / qpstep=4 / vbv_maxrate=50000 / vbv_bufsize=62500 / crf_max=0.0 / nal_hrd=none / filler=0 / ip_ratio=1.40 / pb_ratio=1.30 / aq=3:0.75 / aq-sensitivity=10.00 / aq-factor=1.00:1.00:1.00 / aq2=0 / aq3=0 / zones=0,592,crf=14.6
Язык : English
Default : Да
Forced : НетАудио
Идентификатор : 2
Формат : AC-3
Формат/Информация : Audio Coding 3
Расширение режима : CM (complete main)
Параметр Endianness формата : Big
Идентификатор кодека : A_AC3
Продолжительность : 2 ч. 13 м.
Вид битрейта : Постоянный
Битрейт : 640 Кбит/сек
Каналы : 6 каналов
Расположение каналов : Front: L C R, Side: L R, LFE
Частота : 48,0 КГц
Частота кадров : 31,250 кадров/сек (1536 spf)
Метод сжатия : С потерями
Задержка видео : 15 с.
Размер потока : 612 Мбайт (10%)
Заголовок : AC3 5.1 @ 640 Kbps, Дубляж, Blu-ray RUS
Язык : Russian
Default : Да
Forced : ДаТекст
Идентификатор : 3
Формат : UTF-8
Идентификатор кодека : S_TEXT/UTF8
Идентификатор кодека/Информация : UTF-8 Plain Text
Заголовок : full, Blu-Ray RUS
Язык : Russian
Default : Нет
Forced : НетМеню
00:00:00.000 : en:Chapter 1
00:08:36.792 : en:Chapter 2
00:19:37.750 : en:Chapter 3
00:26:20.250 : en:Chapter 4
00:36:05.000 : en:Chapter 5
00:44:24.083 : en:Chapter 6
00:56:14.458 : en:Chapter 7
01:09:24.583 : en:Chapter 8
01:24:24.625 : en:Chapter 9
01:33:59.333 : en:Chapter 10
01:47:49.333 : en:Chapter 11
02:01:58.917 : en:Chapter 12

Скриншот c названием фильма

Скриншоты

-Трейлер
Яндекс.Метрика
Рейтинг@Mail.ru