Бэтмен против Супермена: На заре справедливости / Batman v Superman: Dawn of Justice (2016) WEB-DLRip | iTunes

 

Создавать темы 30-Июн-2016 07:20

Информация о фильме
Название: Бэтмен против Супермена: На заре справедливости
Оригинальное название: Batman v Superman: Dawn of Justice
Год выхода: 2016
Жанр: Фантастика, фэнтези, боевик, приключения
Режиссер: Зак Снайдер
В ролях: Генри Кавилл, Бен Аффлек, Галь Гадот, Эми Адамс, Джесси Айзенберг, Джереми Айронс, Дайан Лэйн, Лоренс Фишбёрн, Холли Хантер, Скут МакНэйри, Каллэн Мулвей, Тао Окамото, Брэндон Спинк, Лорен Коэн, Алан Д. Первин, Марк Эдвард Тейлор, Хью Магвайр, Майкл Шеннон, Ханна Дворкин, Тиффани Л. Эддисон
О фильме:
Битва между Кал-Элом и генералом Зодом наносит множество разрушений Метрополису и соседнему Готэм Сити. Башня Уэйн-тауэр - уничтожена вместе с сотнями невинных людей. Это становится началом конфликта между Последним Сыном Криптона и Темным Рыцарем Готэма, богом и человеком. Тем временем, сумасшедший гений Лекс Лютор готовит оружие Судного дня, способное уничтожить не только богоподобного Супермена, но и все человечество.

Страна: США
Студия: Atlas Entertainment, DC Comics, DC Entertainment, RatPac-Dune Entertainment, Warner Bros. Pictures
Продолжительность: 02:31:27
Перевод: Дублированный [iTunes]
Файл
Кодек: XviD
Качество: WEB-DLRip
Видео: 640x272, 552 Кбит/с, 23.976fps
Звук: MP3, 2ch, 128 Кбит/с
Семпл

MI

Format : AVI
Format/Info : Audio Video Interleave
File size : 747 MiB
Duration : 2h 31mn
Overall bit rate : 689 Kbps
Writing application : VirtualDubMod 1.5.10.3 | www.virtualdub-fr.org || (build 2550/release)
Writing library : VirtualDubMod build 2550/release
Video
ID : 0
Format : MPEG-4 Visual
Format profile : Advanced [email protected]
Format settings, BVOP : 1
Format settings, QPel : No
Format settings, GMC : No warppoints
Format settings, Matrix : Default (H.263)
Codec ID : XVID
Codec ID/Hint : XviD
Duration : 2h 31mn
Bit rate : 552 Kbps
Width : 640 pixels
Height : 272 pixels
Display aspect ratio : 2.35:1
Frame rate : 23.976 (23976/1000) fps
Color space : YUV
Chroma subsampling : 4:2:0
Bit depth : 8 bits
Scan type : Progressive
Compression mode : Lossy
Bits/(Pixel*Frame) : 0.132
Stream size : 598 MiB (80%)
Writing library : XviD 1.2.1 (UTC 2008-12-04)
Audio
ID : 1
Format : MPEG Audio
Format version : Version 1
Format profile : Layer 3
Codec ID : 55
Codec ID/Hint : MP3
Duration : 2h 31mn
Bit rate mode : Constant
Bit rate : 128 Kbps
Channel(s) : 2 channels
Sampling rate : 48.0 KHz
Compression mode : Lossy
Stream size : 139 MiB (19%)
Alignment : Aligned on interleaves
Interleave, duration : 42 ms (1.00 video frame)
Interleave, preload duratio : 504 ms
Writing library : LAME3.99r
Encoding settings : -m s -V 4 -q 2 -lowpass 17 -b 128

Скриншоты

Яндекс.Метрика
Рейтинг@Mail.ru