Инсайдеры (Тайные агенты) / Naeboojadeul (У Мин-хо / Woo Min-ho) [2015 г., Триллер, драма, криминал, WEB-DLRip-AVC] [Режиссерская версия] DVO

 

Создавать темы 28-Июн-2016 04:39

-Инсайдеры (Тайные агенты) / Naeboojadeul / Режиссерская версия-- Производство: Южная Корея / ShowBox, Inside Men LLC
Год выпуска: 2015 г.
Жанр: Триллер, драма, криминал
Продолжительность: 03:00:29-Мировая премьера: 19 ноября 2015
Перевод: Любительский (двухголосый, закадровый) [den904, DeadSno]
Режиссер: У Мин-хо / Woo Min-ho-В ролях: Бён Хон Ли, Сын У Чо, Юн Сик Пэк, Кён Ён Ли, Хон Фа Ким, Чжэ Юн Чо, Сон У Пэ, Дэ Мён Ким, У Джин Чо, Эль Ли, Чжэ Мён Ю, Ман Сик Чон, Бён Ок Ким, Ый Сон Ким-Описание: Основано на манхве Юна Тхэ-хо. Близятся президентские выборы. Поступает информация о том, что один из банков выдал незаконный кредит крупной компании, а на полученные деньги был создан “Смазочный фонд” (деньги для подкупа влиятельных лиц). Часть этой суммы, якобы, выделена на предвыборную кампанию конгрессмена, одного из кандидатов. Данная история связывает трёх людей: редактора газеты, гангстера и прокурора. У каждого своя цель, однако есть ещё кто-то. Управляющие ими, другими участниками истории и всей общественностью…-
Качество видео: WEB-DLRip-AVC
Контейнер: MKV
Видео кодек: XviD
Аудио кодек: AC3
Видео: 800x432, 1200 Кбит/с, 23.976 fps
Аудио: 6 ch, 384 Кбит/с, 48.0 kHz
Cубтитры: отсутствуют
Режиссерская версия на 50 минут длиннее официальной!ВНИМАНИЕ! В фильме присутствует ненормативная лексика!Возрастное ограничение: 18+

Награды

Asian Film Awards 2016Награда - Лучший актер - Byung-hun Lee
Номинация - Best Production Designer - Min-su LeeBaek Sang Art Awards 2016Награда - Лучший актер - Byung-hun Lee
Номинации - Лучший фильм, Лучший режиссер (Min-ho Woo), Лучший актер (Yun-shik Baek)

Media Info

General
Unique ID : 171890117109419086787022211244677370752 (0x8150D5161A8CF166924B7327522F9380)
Complete name :/Инсайдеры.Тайные.агенты.(режиссёрская версия).[pirat.ca].mkv
Format : Matroska
Format version : Version 4 / Version 2
File size : 2.04 GiB
Duration : 3h 0mn
Overall bit rate : 1 617 Kbps
Encoded date : UTC 2016-06-15 18:43:31
Writing application : mkvmerge v6.2.0 ('Promised Land') built on Apr 28 2013 12:22:01
Writing library : libebml v1.3.0 + libmatroska v1.4.0Video
ID : 1
Format : MPEG-4 Visual
Format profile : Advanced [email protected]/* */
Format settings, BVOP : Yes
Format settings, QPel : No
Format settings, GMC : No warppoints
Format settings, Matrix : Default (H.263)
Codec ID : V_MS/VFW/FOURCC / XVID
Codec ID/Hint : XviD
Duration : 3h 0mn
Bit rate : 1 200 Kbps
Width : 800 pixels
Height : 432 pixels
Display aspect ratio : 1.85:1
Frame rate mode : Constant
Frame rate : 23.976 fps
Color space : YUV
Chroma subsampling : 4:2:0
Bit depth : 8 bits
Scan type : Progressive
Compression mode : Lossy
Bits/(Pixel*Frame) : 0.145
Stream size : 1.51 GiB (74%)
Writing library : XviD 67
Default : Yes
Forced : NoAudio
ID : 3
Format : AC-3
Format/Info : Audio Coding 3
Mode extension : CM (complete main)
Format settings, Endianness : Big
Codec ID : A_AC3
Duration : 3h 0mn
Bit rate mode : Constant
Bit rate : 384 Kbps
Channel(s) : 6 channels
Channel positions : Front: L C R, Side: L R, LFE
Sampling rate : 48.0 KHz
Bit depth : 16 bits
Compression mode : Lossy
Stream size : 496 MiB (24%)
Default : Yes
Forced : NoText
ID : 2
Format : UTF-8
Codec ID : S_TEXT/UTF8
Codec ID/Info : UTF-8 Plain Text
Default : Yes
Forced : No

Скриншот c названием фильма

Скриншоты

Трейлер
Яндекс.Метрика
Рейтинг@Mail.ru