Дивергент, глава 3: За стеной / Allegiant (Роберт Швентке / Robert Schwentke) [2016 г., фантастика, боевик, приключения, WEB-DLRip-AVC] Dub [iTunes]

 

Создавать темы 18-Июн-2016 03:02

--Дивергент, глава 3: За стеной / Allegiant--«Break the boundaries of your world»-- Производство: США, Lionsgate, Red Wagon Productions, Summit Entertainment
Год выпуска: 2016 г.
Жанр: фантастика, боевик, приключения
Продолжительность: 02:00:21--Мировая премьера: 8 марта 2016
Российская премьера: 10 марта 2016, «Централ Партнершип»--Перевод: Профессиональный (полное дублирование) [iTunes]--Режиссер: Роберт Швентке / Robert Schwentke--В ролях: Эллисон Роу, Шейлин Вудли, Тео Джеймс, Джефф Дэниелс, Зои Кравиц, Наоми Уоттс, Энсел Элгорт, Джонни Уэстон, Майлз Теллер, Мэгги Кью--Описание: Трис и Фор впервые покидают город и своих близких и оказываются в опасном мире за стеной, отделяющей Чикаго, где им открывается шокирующая правда.
Они должны быстро разобраться, кому можно доверять, так как битва, разгорающаяся за стенами города, угрожает всему человечеству. Чтобы выжить, Трис придется сделать непростой выбор между мужеством, верностью, любовью и необходимостью идти на жертвы.-- --Качество видео: WEB-DLRip-AVC
Контейнер: MKV
Видео кодек: AVC/H.264
Аудио кодек: AC3
Видео: AVC, 1024x576 (2.40:1), 2674 kbps, 24,000 fps, 0.189 bpp
Аудио: 48 kHz, AC3 Dolby Digital, 3/2 (L,C,R,l,r) + LFE ch, ~384 kbpsCубтитры: отсутствуют.

Media Info

Общее
Уникальный идентификатор : 243059606106474444989280463122581803861 (0xB6DB93CE5543284AA22F502ACEE9D355)
Полное имя : H:\Torrent2\Allegiant.2016.x264.WEB-DLRip.AVC.mkv
Формат : Matroska
Версия формата : Version 2
Размер файла : 2,57 Гбайт
Продолжительность : 2 ч. 0 м.
Общий поток : 3060 Кбит/сек
Название фильма : Дивергент, глава 3: За стеной.2016.Rip by: ollan
Дата кодирования : UTC 2016-06-16 23:53:19
Программа кодирования : mkvmerge v5.6.0 ('Kenya Kane') built on May 27 2012 16:44:04
Библиотека кодирования : libebml v1.2.3 + libmatroska v1.3.0
Обложка : Yes
Attachments : Cover - Allegiant.pngВидео
Идентификатор : 1
Формат : AVC
Формат/Информация : Advanced Video Codec
Профиль формата : [email protected]/* */
Параметр CABAC формата : Да
Параметр ReFrames формата : 12 кадров
Идентификатор кодека : V_MPEG4/ISO/AVC
Продолжительность : 2 ч. 0 м.
Битрейт : 2674 Кбит/сек
Ширина : 1024 пикселя
Высота : 576 пикселей
Соотношение сторон : 16:9
Режим частоты кадров : Постоянный
Частота кадров : 24,000 кадра/сек
Цветовое пространство : YUV
Субдискретизация насыщенности : 4:2:0
Битовая глубина : 8 бит
Тип развёртки : Прогрессивная
Бит/(Пиксели*Кадры) : 0.189
Размер потока : 2,20 Гбайт (85%)
Библиотека кодирования : x264 core 146 r2538 121396c
Настройки программы : cabac=1 / ref=12 / deblock=1:-3:-3 / analyse=0x3:0x133 / me=umh / subme=11 / psy=1 / psy_rd=1.00:0.10 / mixed_ref=1 / me_range=48 / chroma_me=1 / trellis=2 / 8x8dct=1 / cqm=0 / deadzone=21,11 / fast_pskip=0 / chroma_qp_offset=-3 / threads=12 / lookahead_threads=2 / sliced_threads=0 / nr=0 / decimate=0 / interlaced=0 / bluray_compat=0 / constrained_intra=0 / bframes=9 / b_pyramid=2 / b_adapt=2 / b_bias=0 / direct=3 / weightb=1 / open_gop=0 / weightp=2 / keyint=240 / keyint_min=23 / scenecut=40 / intra_refresh=0 / rc_lookahead=40 / rc=2pass / mbtree=0 / bitrate=2674 / ratetol=1.0 / qcomp=0.60 / qpmin=0 / qpmax=69 / qpstep=4 / cplxblur=20.0 / qblur=0.5 / vbv_maxrate=50000 / vbv_bufsize=62500 / nal_hrd=none / filler=0 / ip_ratio=1.40 / pb_ratio=1.30 / aq=1:1.00
Язык : English
Default : Да
Forced : НетАудио
Идентификатор : 2
Формат : AC-3
Формат/Информация : Audio Coding 3
Расширение режима : CM (complete main)
Параметр Endianness формата : Big
Идентификатор кодека : A_AC3
Продолжительность : 2 ч. 0 м.
Вид битрейта : Постоянный
Битрейт : 384 Кбит/сек
Каналы : 6 каналов
Расположение каналов : Front: L C R, Side: L R, LFE
Частота : 48,0 КГц
Частота кадров : 31,250 кадров/сек (1536 spf)
Метод сжатия : С потерями
Размер потока : 331 Мбайт (13%)
Заголовок : Дублированный (iTunes Russia)
Язык : Russian
Default : Да
Forced : Нет

Скриншоты

Трейлер
Яндекс.Метрика
Рейтинг@Mail.ru