[ Сегодня на трекере фрилич! Идет свободное скачивание без начисления Download ]

Цвет ночи / Color of Night (Ричард Раш / Richard Rush) [1994 г., триллер, мелодрама, детектив, HDRip] MVO

 

Создавать темы 17-Июн-2016 05:14

-Цвет ночи / Color of Night-- Производство: США, Cinergi Pictures Entertainment Inc., Hollywood Pictures, ...
Год выпуска: 1994 г.
Жанр: триллер, мелодрама, детектив
Продолжительность: 02:19:18Мировая премьера: 19 августа 1994
Перевод: Профессиональный (многоголосый, закадровый)
Режиссер: Ричард Раш / Richard Rush-В ролях: Брюс Уиллис / Bruce Willis, Джейн Марч / Jane March, Рубен Блэйдс / Ruben Blades, Лесли Энн Уоррен / Lesley Ann Warren, Скотт Бакула / Scott Bakula, Брэд Дуриф / Brad Douri, ...-Описание: Нью-йоркский психиатр Билл Капа переносит страшное потрясение: его пациентка выбросилась из окна прямо во время сеанса терапии. Потеряв уверенность в своих силах и навыках, он едет к своему другу и коллеге, чтобы стать его пациентом и вернуть с его помощью душевное равновесие. Но того внезапно зверски убивают, и вместо того, чтоб получить так необходимую ему разрядку, герой оказывается в центре нового кошмара. Убийца - явно кто-то из пациентов покойного, и лишь Билл может вычислить его. Но основная проблема не в этом. А в том, что, не в силах совладать с собой, герой заводит бурный, опасный, непредсказуемый роман с одной из главных подозреваемых - загадочной и чертовски сексуальной Роуз...-
Качество видео: HDRip
Контейнер: AVI
Видео кодек: XviD
Аудио кодек: MP3
Видео: 592x320 (1.85:1), 23.976 fps, XviD build 50 ~645 kbps avg, 0.14 bit/pixel
Аудио: 48 kHz, MPEG Layer 3, 2 ch, ~128.00 kbps avg
Cубтитры: отсутствуют

Доп. информация

Журнал «MAXIM» назвал эротические сцены в фильме лучшими за всю историю кинематографа.
Режиссёрская версия имеет хронометраж 140 минут.

Рецензия

Когда день превратится в ночь…Впервые посмотрела «Цвет ночи» пару лет назад, меня очень тронул этот фильм. После каждого просмотра я до сих пор долгое время остаюсь под впечатлением.Непростая, запутанная, интригующая обстановка в фильме не дает оторваться от экрана. Билл Капа — психоаналитик, на глазах у которого пациентка покончила жизнь самоубийством, после чего он перестал видеть красный цвет. Чтобы разобраться в себе и в своих мыслях, Билл уезжает к своему знакомому психиатру в Лос-Анджелес. Там же он знакомится с загадочной незнакомкой по имени Роуз. Но вскоре происходит зверское убийство его друга, и Билл вынужден продолжить групповые занятия с сумасшедшими пациентами своего коллеги…Для меня Брюс Уиллис всегда был «крепким орешком». Мне не шибко нравятся фильмы с его участием, но в этот раз даже я растаяла… Однако, большее внимание я все же обратила на Джейн Марч. Если быть честной, она меня просто поразила. Своей улыбкой, своей неординарной красотой, своей откровенностью. Жаль, что у нее так мало ролей в кино.Вся атмосфера в фильме буквально пропитана сексом, в самом лучшем смысле этого слова. Там не порно, нет. А по-настоящему красивые, чувственные эротические сцены.Конечно же, нельзя не отметить саундтрек к фильму. Эта песня до сих пор, спустя много лет, в числе моих фаворитов.Если вы хотите посмотреть качественный триллер с элементами эротики, не проходите мимо этого фильма. Он того стоит, честно.10 из 10P.S. Пойду посмотрю еще раз…

Media Info

Общее
Полное имя : E:\Цвет ночи\Tcvet nochi.HDRip.[pirat.ca].avi
Формат : AVI
Формат/Информация : Audio Video Interleave
Размер файла : 780 Мбайт
Продолжительность : 2 ч. 19 м.
Общий поток : 783 Кбит/сек
Название фильма : Tcvet nochi.HDRip.[pirat.ca]
Программа кодирования : VirtualDubMod 1.5.10.2 (build 2540/release)Видео
Идентификатор : 0
Формат : MPEG-4 Visual
Профиль формата : Advanced [email protected]/* */
Параметр BVOP формата : 1
Параметр QPel формата : Нет
Параметр GMC формата : Без точки перехода
Параметр матрицы формата : Выборочная
Идентификатор кодека : XVID
Идентификатор кодека/Подсказка : XviD
Продолжительность : 2 ч. 19 м.
Битрейт : 646 Кбит/сек
Ширина : 592 пикселя
Высота : 320 пикселей
Соотношение сторон : 1,85:1
Частота кадров : 23,976 (23976/1000) кадра/сек
Цветовое пространство : YUV
Субдискретизация насыщенности : 4:2:0
Битовая глубина : 8 бит
Тип развёртки : Прогрессивная
Метод сжатия : С потерями
Бит/(Пиксели*Кадры) : 0.142
Размер потока : 643 Мбайт (82%)
Библиотека кодирования : XviD 1.2.1 (UTC 2008-12-04)Аудио
Идентификатор : 1
Формат : MPEG Audio
Версия формата : Version 1
Профиль формата : Layer 3
Идентификатор кодека : 55
Идентификатор кодека/Подсказка : MP3
Продолжительность : 2 ч. 19 м.
Вид битрейта : Постоянный
Битрейт : 128 Кбит/сек
Каналы : 2 канала
Частота : 48,0 КГц
Метод сжатия : С потерями
Размер потока : 128 Мбайт (16%)
Выравнивание : Соединение по промежуткам
Продолжительность промежутка : 42 мс. (1,00 видеокадр)
Время предзагрузки промежутка : 504 мс.
Библиотека кодирования : LAME3.97
Настройки программы : -m s -V 4 -q 2 -lowpass 17 -b 128

Скриншот c названием фильма

Скриншоты

Трейлер
Яндекс.Метрика
Рейтинг@Mail.ru